<?xml version="1.0" standalone="no"?>
<!DOCTYPE svg PUBLIC "-//W3C//DTD SVG 1.1//EN" "http://www.w3.org/Graphics/SVG/1.1/DTD/svg11.dtd" >
<svg>
<metadata>
Created by FontForge 20090914 at Mon Apr  1 10:35:17 2013
 By www-data
&#194;&#169; 2004 Microsoft Corporation. All rights reserved.
</metadata>
<defs>
<font id="Tahoma" horiz-adv-x="0" >
  <font-face 
    font-family="Tahoma"
    font-weight="400"
    font-stretch="normal"
    units-per-em="2048"
    panose-1="2 11 6 4 3 5 4 4 2 4"
    ascent="1638"
    descent="-410"
    x-height="1117"
    cap-height="1489"
    bbox="-1228 -424.003 2741 2118"
    underline-thickness="130"
    underline-position="-105"
    unicode-range="U+0020-U+FFFC"
  />
<missing-glyph horiz-adv-x="2048" 
d="M256 0v1536h1536v-1536h-1536zM384 128h1280v1280h-1280v-1280z" />
    <glyph glyph-name="afii62881" unicode="&#x651;&#x64b;" horiz-adv-x="618" 
d="M362.5 1424.5c-21.667 11.667 -36.832 25.835 -45.499 42.502c-6 -25.333 -22.5 -49.5 -49.5 -72.5s-60.167 -34.5 -99.5 -34.5c-50.667 0 -91 14.667 -121 44s-45 70.666 -45 123.999c0 18 0.5 37.167 1.5 57.5s1.83301 34.833 2.5 43.5h96v-7l-3.5 -39
c-1.66699 -18.667 -2.5 -36.334 -2.5 -53.001c0 -24 6.16699 -42.667 18.5 -56s30.166 -20 53.499 -20c28.667 0 51.5 12.667 68.5 38s25.5 63.333 25.5 114v70h94v-60c0 -38 7.5 -66.5 22.5 -85.5s34.167 -28.5 57.5 -28.5c27.333 0 48.5 9.16699 63.5 27.5
s22.5 46.5 22.5 84.5c0 22.667 -0.833008 42 -2.5 58s-2.83398 28 -3.50098 36v7h94c0.666992 -6.66699 1.83398 -17 3.50098 -31s2.5 -38 2.5 -72c0 -65.333 -16.5 -115.833 -49.5 -151.5s-76.5 -53.5 -130.5 -53.5c-27.333 0 -51.833 5.83301 -73.5 17.5zM598.002 2019
l-573 -100v100l573 97v-97zM598.002 1819l-573 -101v101l573 96v-96z" />
    <glyph glyph-name="afii62882" unicode="&#x651;&#x64c;" horiz-adv-x="613" arabic-form="isolated" 
d="M359.5 1380.5c-21.667 11.667 -36.832 25.835 -45.499 42.502c-6 -25.333 -22.5 -49.5 -49.5 -72.5s-60.167 -34.5 -99.5 -34.5c-50.667 0 -91 14.667 -121 44s-45 70.666 -45 123.999c0 18 0.5 37.167 1.5 57.5s1.83301 34.833 2.5 43.5h96v-7l-3.5 -39
c-1.66699 -18.667 -2.5 -36.334 -2.5 -53.001c0 -24 6.16699 -42.667 18.5 -56s30.166 -20 53.499 -20c28.667 0 51.5 12.667 68.5 38s25.5 63.333 25.5 114v70h94v-60c0 -38 7.5 -66.5 22.5 -85.5s34.167 -28.5 57.5 -28.5c27.333 0 48.5 9.16699 63.5 27.5
s22.5 46.5 22.5 84.5c0 22.667 -0.833008 42 -2.5 58s-2.83398 28 -3.50098 36v7h94c0.666992 -6.66699 1.83398 -17 3.50098 -31s2.5 -38 2.5 -72c0 -65.333 -16.5 -115.833 -49.5 -151.5s-76.5 -53.5 -130.5 -53.5c-27.333 0 -51.833 5.83301 -73.5 17.5zM352.002 1804
c-34 10.667 -63.998 29.832 -89.998 57.499s-39 60.5 -39 98.5c0 46 15.5 83.833 46.5 113.5s72.833 44.5 125.5 44.5c45.333 0 85 -15.167 119 -45.5s51 -69.166 51 -116.499c0 -22.667 -6 -46.167 -18 -70.5s-23.667 -41.166 -35 -50.499l63 -12v-86l-126 28
c-62 -35.333 -128 -62.333 -198 -81s-137.333 -30.334 -202 -35.001l4 36c2 24 4 50 6 78c1.33301 22 3.16602 48 5.49902 78s3.5 48.333 3.5 55c0 8.66699 -1.66699 16 -5 22s-11.333 9 -24 9c-12 0 -26 -0.5 -42 -1.5s-26.667 -1.83301 -32 -2.5v96c4 0 19 1 45 3
s47.333 3 64 3c21.333 0 39.666 -6.16699 54.999 -18.5s23 -29.166 23 -50.499c0 -30.667 -2.33301 -73.334 -7 -128.001l-8 -83c28 4 61 10.167 99 18.5s76.667 21.833 116 40.5zM428.004 1860c14 12 25.333 25.501 34 40.501s13 34.167 13 57.5
c0 19.333 -7.83301 35 -23.5 47s-33.167 18 -52.5 18c-23.333 0 -42.833 -5.5 -58.5 -16.5s-23.5 -27.167 -23.5 -48.5c0 -22.667 9.5 -42.334 28.5 -59.001s46.5 -29.667 82.5 -39z" />
    <glyph glyph-name="afii62883" unicode="&#x651;&#x64d;" horiz-adv-x="618" arabic-form="isolated" 
d="M362.5 1827.5c-21.667 11.667 -36.832 25.835 -45.499 42.502c-6 -25.333 -22.5 -49.5 -49.5 -72.5s-60.167 -34.5 -99.5 -34.5c-50.667 0 -91 14.667 -121 44s-45 70.666 -45 123.999c0 18 0.5 37.167 1.5 57.5s1.83301 34.833 2.5 43.5h96v-7l-3.5 -39
c-1.66699 -18.667 -2.5 -36.334 -2.5 -53.001c0 -24 6.16699 -42.667 18.5 -56s30.166 -20 53.499 -20c28.667 0 51.5 12.667 68.5 38s25.5 63.333 25.5 114v70h94v-60c0 -38 7.5 -66.5 22.5 -85.5s34.167 -28.5 57.5 -28.5c27.333 0 48.5 9.16699 63.5 27.5
s22.5 46.5 22.5 84.5c0 22.667 -0.833008 42 -2.5 58s-2.83398 28 -3.50098 36v7h94c0.666992 -6.66699 1.83398 -17 3.50098 -31s2.5 -38 2.5 -72c0 -65.333 -16.5 -115.833 -49.5 -151.5s-76.5 -53.5 -130.5 -53.5c-27.333 0 -51.833 5.83301 -73.5 17.5zM598.002 1652
l-573 -97v100l573 97v-100zM598.002 1450l-573 -97v100l573 97v-100z" />
    <glyph glyph-name="afii62884" unicode="&#x651;&#x64e;" horiz-adv-x="614" arabic-form="isolated" 
d="M360.5 1635.5c-21.667 11.667 -36.832 25.835 -45.499 42.502c-6 -25.333 -22.5 -49.5 -49.5 -72.5s-60.167 -34.5 -99.5 -34.5c-50.667 0 -91 14.667 -121 44s-45 70.666 -45 123.999c0 18 0.5 37.167 1.5 57.5s1.83301 34.833 2.5 43.5h96v-7l-3.5 -39
c-1.66699 -18.667 -2.5 -36.334 -2.5 -53.001c0 -24 6.16699 -42.667 18.5 -56s30.166 -20 53.499 -20c28.667 0 51.5 12.667 68.5 38s25.5 63.333 25.5 114v70h94v-60c0 -38 7.5 -66.5 22.5 -85.5s34.167 -28.5 57.5 -28.5c27.333 0 48.5 9.16699 63.5 27.5
s22.5 46.5 22.5 84.5c0 22.667 -0.833008 42 -2.5 58s-2.83398 28 -3.50098 36v7h94c0.666992 -6.66699 1.83398 -17 3.50098 -31s2.5 -38 2.5 -72c0 -65.333 -16.5 -115.833 -49.5 -151.5s-76.5 -53.5 -130.5 -53.5c-27.333 0 -51.833 5.83301 -73.5 17.5zM594.002 2017
l-574 -100v100l574 97v-97z" />
    <glyph glyph-name="afii62885" unicode="&#x651;&#x64f;" horiz-adv-x="614" arabic-form="isolated" 
d="M360.5 1370.5c-21.667 11.667 -36.832 25.835 -45.499 42.502c-6 -25.333 -22.5 -49.5 -49.5 -72.5s-60.167 -34.5 -99.5 -34.5c-50.667 0 -91 14.667 -121 44s-45 70.666 -45 123.999c0 18 0.5 37.167 1.5 57.5s1.83301 34.833 2.5 43.5h96v-7l-3.5 -39
c-1.66699 -18.667 -2.5 -36.334 -2.5 -53.001c0 -24 6.16699 -42.667 18.5 -56s30.166 -20 53.499 -20c28.667 0 51.5 12.667 68.5 38s25.5 63.333 25.5 114v70h94v-60c0 -38 7.5 -66.5 22.5 -85.5s34.167 -28.5 57.5 -28.5c27.333 0 48.5 9.16699 63.5 27.5
s22.5 46.5 22.5 84.5c0 22.667 -0.833008 42 -2.5 58s-2.83398 28 -3.50098 36v7h94c0.666992 -6.66699 1.83398 -17 3.50098 -31s2.5 -38 2.5 -72c0 -65.333 -16.5 -115.833 -49.5 -151.5s-76.5 -53.5 -130.5 -53.5c-27.333 0 -51.833 5.83301 -73.5 17.5zM557.002 1737
l-127 27.998c-60.667 -34.667 -120.834 -61 -180.501 -79s-122.5 -29 -188.5 -33v88c50.667 3.33301 97.834 9.5 141.501 18.5s87.5 23.833 131.5 44.5c-34 10.667 -64 29.667 -90 57s-39 60.333 -39 99c0 46 15.333 83.833 46 113.5s72.667 44.5 126 44.5
c45.333 0 85 -15.167 119 -45.5s51 -69.166 51 -116.499c0 -22.667 -6.16699 -46.167 -18.5 -70.5s-23.833 -41.166 -34.5 -50.499l63 -12v-86zM410.002 1860c13.333 11.333 24.5 24.6689 33.5 40.002s13.5 34.666 13.5 57.999c0 19.333 -7.83301 35 -23.5 47
s-33.167 18 -52.5 18c-23.333 0 -42.833 -5.5 -58.5 -16.5s-23.5 -27.167 -23.5 -48.5c0 -22.667 9.5 -42.334 28.5 -59.001s46.5 -29.667 82.5 -39z" />
    <glyph glyph-name="afii62886" unicode="&#x651;&#x650;" horiz-adv-x="614" arabic-form="isolated" 
d="M360.5 1825.5c-21.667 11.667 -36.832 25.835 -45.499 42.502c-6 -25.333 -22.5 -49.5 -49.5 -72.5s-60.167 -34.5 -99.5 -34.5c-50.667 0 -91 14.667 -121 44s-45 70.666 -45 123.999c0 18 0.5 37.167 1.5 57.5s1.83301 34.833 2.5 43.5h96v-7l-3.5 -39
c-1.66699 -18.667 -2.5 -36.334 -2.5 -53.001c0 -24 6.16699 -42.667 18.5 -56s30.166 -20 53.499 -20c28.667 0 51.5 12.667 68.5 38s25.5 63.333 25.5 114v70h94v-60c0 -38 7.5 -66.5 22.5 -85.5s34.167 -28.5 57.5 -28.5c27.333 0 48.5 9.16699 63.5 27.5
s22.5 46.5 22.5 84.5c0 22.667 -0.833008 42 -2.5 58s-2.83398 28 -3.50098 36v7h94c0.666992 -6.66699 1.83398 -17 3.50098 -31s2.5 -38 2.5 -72c0 -65.333 -16.5 -115.833 -49.5 -151.5s-76.5 -53.5 -130.5 -53.5c-27.333 0 -51.833 5.83301 -73.5 17.5zM602.002 1673
l-573 -98v100l573 97v-99z" />
    <glyph glyph-name="afii64184" unicode="&#xfedf;&#xfee0;&#xfeea;" horiz-adv-x="1987" arabic-form="isolated" 
d="M670 545l-0.000976562 282c-132.667 -6.66699 -231.5 -29.667 -296.5 -69s-97.5 -95.333 -97.5 -168c0 -42.667 14.167 -79 42.5 -109s67.5 -45 117.5 -45c46 0 89.333 11.833 130 35.5s75.334 48.167 104.001 73.5zM1255 143
c-22.667 -42 -58.832 -76.334 -108.499 -103.001s-100.834 -40 -153.501 -40c-90.667 0 -167.167 35.5 -229.5 106.5s-93.5 158.5 -93.5 262.5c-30 -29.333 -66 -54.166 -108 -74.499s-92 -30.5 -150 -30.5c-97.333 0 -176.666 30 -237.999 90s-92 138 -92 234
c0 125.333 48.667 219 146 281s244.666 98 441.999 108l168 8v-520c0 -82 12.667 -148.667 38 -200s64.333 -77 117 -77s95.5 20.667 128.5 62s49.5 100 49.5 176v858h168v-858c0 -72.667 16.667 -130.5 50 -173.5s78.333 -64.5 135 -64.5c55.333 0 96.5 21.167 123.5 63.5
s40.5 108.166 40.5 197.499v837h165v-833c0 -149.333 -27.333 -262.166 -82 -338.499s-136.334 -114.5 -245.001 -114.5c-57.333 0 -111.666 13.667 -162.999 41s-87.333 61.333 -108 102zM1290.5 1464.5c-21.667 11.667 -36.832 25.835 -45.499 42.502
c-6 -25.333 -22.5 -49.5 -49.5 -72.5s-60.167 -34.5 -99.5 -34.5c-50.667 0 -91 14.667 -121 44s-45 70.666 -45 123.999c0 18 0.5 37.167 1.5 57.5s1.83301 34.833 2.5 43.5h96v-7l-3.5 -39c-1.66699 -18.667 -2.5 -36.334 -2.5 -53.001c0 -24 6.16699 -42.667 18.5 -56
s30.166 -20 53.499 -20c28.667 0 51.5 12.667 68.5 38s25.5 63.333 25.5 114v70h94v-60c0 -38 7.5 -66.5 22.5 -85.5s34.167 -28.5 57.5 -28.5c27.333 0 48.5 9.16699 63.5 27.5s22.5 46.5 22.5 84.5c0 22.667 -0.833008 42 -2.5 58s-2.83398 28 -3.50098 36v7h94
c0.666992 -6.66699 1.83398 -17 3.50098 -31s2.5 -38 2.5 -72c0 -65.333 -16.5 -115.833 -49.5 -151.5s-76.5 -53.5 -130.5 -53.5c-27.333 0 -51.833 5.83301 -73.5 17.5zM1190 2040h94v-206h-94v206z" />
    <glyph glyph-name="afii62834" unicode="&#xfedf;&#xfe82;" horiz-adv-x="1247" arabic-form="isolated" 
d="M1124 563c0 -84.667 -17.6689 -162.503 -53.002 -233.503s-80.666 -130.167 -135.999 -177.5c-60 -50.667 -125.667 -88.667 -197 -114s-143.333 -38 -216 -38c-66 0 -127.833 1.83301 -185.5 5.5s-91.167 5.83398 -100.5 6.50098v199h10
c20 -5.33301 59.333 -10.5 118 -15.5s112 -7.5 160 -7.5c21.333 0 36.833 1.33301 46.5 4s16.834 5.66699 21.501 9l-539 1280h193l516 -1219c54.667 22.667 101 66.334 139 131.001s57 125.334 57 182.001v981h166v-993zM431.998 1649
c-12.667 -10 -31.8291 -21.498 -57.4961 -34.498s-55.5 -19.5 -89.5 -19.5c-26 0 -64.5 10.333 -115.5 31s-89.167 31 -114.5 31c-22 0 -48.333 -8.33301 -79 -25s-53.334 -29.667 -68.001 -39v101c11.333 9.33301 32.166 21.166 62.499 35.499s58.5 21.5 84.5 21.5
c23.333 0 61.166 -10.167 113.499 -30.5s91.166 -30.5 116.499 -30.5c28.667 0 58.167 7.66699 88.5 23s49.833 26.666 58.5 33.999v-98z" />
    <glyph glyph-name="afii62835" unicode="&#xfee0;&#xfe82;" horiz-adv-x="1454" arabic-form="final" 
d="M1337 0c-77.333 0 -143.999 20.4971 -199.999 61.4971s-96.333 102.5 -121 184.5c-59.333 -78 -132.666 -138.5 -219.999 -181.5s-178.666 -64.5 -273.999 -64.5c-66 0 -127.833 1.83301 -185.5 5.5s-91.167 5.83398 -100.5 6.50098v199h10
c20 -5.33301 59.333 -10.5 118 -15.5s112 -7.5 160 -7.5c21.333 0 37.166 1.66699 47.499 5s17.166 6 20.499 8l-539 1280h193l516 -1219c54.667 22.667 101 66.334 139 131.001s57 125.334 57 182.001v981h166v-993c0 -50 2.66699 -94.5 8 -133.5s17 -78.833 35 -119.5
c15.333 -35.333 36.666 -64.5 63.999 -87.5s61.333 -34.5 102 -34.5h121v-188h-117zM432.001 1649c-12.667 -10 -31.8291 -21.498 -57.4961 -34.498s-55.5 -19.5 -89.5 -19.5c-26 0 -64.5 10.333 -115.5 31s-89.167 31 -114.5 31c-22 0 -48.333 -8.33301 -79 -25
s-53.334 -29.667 -68.001 -39v101c11.333 9.33301 32.166 21.166 62.499 35.499s58.5 21.5 84.5 21.5c23.333 0 61.166 -10.167 113.499 -30.5s91.166 -30.5 116.499 -30.5c28.667 0 58.167 7.66699 88.5 23s49.833 26.666 58.5 33.999v-98z" />
    <glyph glyph-name="afii62836" unicode="&#xfedf;&#xfe84;" horiz-adv-x="1247" arabic-form="isolated" 
d="M1124 563c0 -84.667 -17.6689 -162.503 -53.002 -233.503s-80.666 -130.167 -135.999 -177.5c-60 -50.667 -125.667 -88.667 -197 -114s-143.333 -38 -216 -38c-66 0 -127.833 1.83301 -185.5 5.5s-91.167 5.83398 -100.5 6.50098v199h10
c20 -5.33301 59.333 -10.5 118 -15.5s112 -7.5 160 -7.5c21.333 0 36.833 1.33301 46.5 4s16.834 5.66699 21.501 9l-539 1280h193l516 -1219c54.667 22.667 101 66.334 139 131.001s57 125.334 57 182.001v981h166v-993zM372.998 1596h-336v94h74
c-16 8.66699 -29.167 22.667 -39.5 42s-15.5 39.333 -15.5 60c0 42.667 15.667 80 47 112s73.666 48 126.999 48c35.333 0 61.5 -2 78.5 -6s28.833 -7.33301 35.5 -10v-101h-6c-9.33301 4 -25.166 8.83301 -47.499 14.5s-41.833 8.5 -58.5 8.5c-29.333 0 -51.333 -6 -66 -18
s-22 -28 -22 -48c0 -30 15.333 -54.5 46 -73.5s67 -28.5 109 -28.5h74v-94z" />
    <glyph glyph-name="afii62837" unicode="&#xfee0;&#xfe84;" horiz-adv-x="1454" arabic-form="final" 
d="M1337 0c-77.333 0 -143.999 20.4971 -199.999 61.4971s-96.333 102.5 -121 184.5c-59.333 -78 -132.666 -138.5 -219.999 -181.5s-178.666 -64.5 -273.999 -64.5c-66 0 -127.833 1.83301 -185.5 5.5s-91.167 5.83398 -100.5 6.50098v199h10
c20 -5.33301 59.333 -10.5 118 -15.5s112 -7.5 160 -7.5c21.333 0 37.166 1.66699 47.499 5s17.166 6 20.499 8l-539 1280h193l516 -1219c54.667 22.667 101 66.334 139 131.001s57 125.334 57 182.001v981h166v-993c0 -50 2.66699 -94.5 8 -133.5s17 -78.833 35 -119.5
c15.333 -35.333 36.666 -64.5 63.999 -87.5s61.333 -34.5 102 -34.5h121v-188h-117zM369.001 1596h-336v94h74c-16 8.66699 -29.167 22.667 -39.5 42s-15.5 39.333 -15.5 60c0 42.667 15.667 80 47 112s73.666 48 126.999 48c35.333 0 61.5 -2 78.5 -6
s28.833 -7.33301 35.5 -10v-101h-6c-9.33301 4 -25.166 8.83301 -47.499 14.5s-41.833 8.5 -58.5 8.5c-29.333 0 -51.333 -6 -66 -18s-22 -28 -22 -48c0 -30 15.333 -54.5 46 -73.5s67 -28.5 109 -28.5h74v-94z" />
    <glyph glyph-name="afii62838" unicode="&#xfedf;&#xfe88;" horiz-adv-x="1247" arabic-form="isolated" 
d="M1124 563c0 -84.667 -17.6689 -162.503 -53.002 -233.503s-80.666 -130.167 -135.999 -177.5c-60 -50.667 -125.667 -88.667 -197 -114s-143.333 -38 -216 -38c-66 0 -127.833 1.83301 -185.5 5.5s-91.167 5.83398 -100.5 6.50098v199h10
c20 -5.33301 59.333 -10.5 118 -15.5s112 -7.5 160 -7.5c21.333 0 36.833 1.33301 46.5 4s16.834 5.66699 21.501 9l-539 1280h193l516 -1219c54.667 22.667 101 66.334 139 131.001s57 125.334 57 182.001v981h166v-993zM654.998 -423.003h-336v94h74
c-16 8.66699 -29.167 22.667 -39.5 42s-15.5 39.333 -15.5 60c0 42.667 15.667 80 47 112s73.666 48 126.999 48c35.333 0 61.5 -2 78.5 -6s28.833 -7.33301 35.5 -10v-101h-6c-9.33301 4 -25.166 8.83301 -47.499 14.5s-41.833 8.5 -58.5 8.5c-29.333 0 -51.333 -6 -66 -18
s-22 -28 -22 -48c0 -30 15.333 -54.5 46 -73.5s67 -28.5 109 -28.5h74v-94z" />
    <glyph glyph-name="afii62839" unicode="&#xfee0;&#xfe88;" horiz-adv-x="1454" arabic-form="final" 
d="M1337 0c-77.333 0 -143.999 20.4971 -199.999 61.4971s-96.333 102.5 -121 184.5c-59.333 -78 -132.666 -138.5 -219.999 -181.5s-178.666 -64.5 -273.999 -64.5c-66 0 -127.833 1.83301 -185.5 5.5s-91.167 5.83398 -100.5 6.50098v199h10
c20 -5.33301 59.333 -10.5 118 -15.5s112 -7.5 160 -7.5c21.333 0 37.166 1.66699 47.499 5s17.166 6 20.499 8l-539 1280h193l516 -1219c54.667 22.667 101 66.334 139 131.001s57 125.334 57 182.001v981h166v-993c0 -50 2.66699 -94.5 8 -133.5s17 -78.833 35 -119.5
c15.333 -35.333 36.666 -64.5 63.999 -87.5s61.333 -34.5 102 -34.5h121v-188h-117zM649.001 -423.003h-336v94h74c-16 8.66699 -29.167 22.667 -39.5 42s-15.5 39.333 -15.5 60c0 42.667 15.667 80 47 112s73.666 48 126.999 48c35.333 0 61.5 -2 78.5 -6
s28.833 -7.33301 35.5 -10v-101h-6c-9.33301 4 -25.166 8.83301 -47.499 14.5s-41.833 8.5 -58.5 8.5c-29.333 0 -51.333 -6 -66 -18s-22 -28 -22 -48c0 -30 15.333 -54.5 46 -73.5s67 -28.5 109 -28.5h74v-94z" />
    <glyph glyph-name="afii62840" unicode="&#xfedf;&#xfe8e;" horiz-adv-x="1247" arabic-form="isolated" 
d="M1124 563c0 -84.667 -17.6689 -162.503 -53.002 -233.503s-80.666 -130.167 -135.999 -177.5c-60 -50.667 -125.667 -88.667 -197 -114s-143.333 -38 -216 -38c-66 0 -127.833 1.83301 -185.5 5.5s-91.167 5.83398 -100.5 6.50098v199h10
c20 -5.33301 59.333 -10.5 118 -15.5s112 -7.5 160 -7.5c21.333 0 36.833 1.33301 46.5 4s16.834 5.66699 21.501 9l-539 1280h193l516 -1219c54.667 22.667 101 66.334 139 131.001s57 125.334 57 182.001v981h166v-993z" />
    <glyph glyph-name="afii62841" unicode="&#xfee0;&#xfe8e;" horiz-adv-x="1454" arabic-form="final" 
d="M1337 0c-77.333 0 -143.999 20.4971 -199.999 61.4971s-96.333 102.5 -121 184.5c-59.333 -78 -132.666 -138.5 -219.999 -181.5s-178.666 -64.5 -273.999 -64.5c-66 0 -127.833 1.83301 -185.5 5.5s-91.167 5.83398 -100.5 6.50098v199h10
c20 -5.33301 59.333 -10.5 118 -15.5s112 -7.5 160 -7.5c21.333 0 37.166 1.66699 47.499 5s17.166 6 20.499 8l-539 1280h193l516 -1219c54.667 22.667 101 66.334 139 131.001s57 125.334 57 182.001v981h166v-993c0 -50 2.66699 -94.5 8 -133.5s17 -78.833 35 -119.5
c15.333 -35.333 36.666 -64.5 63.999 -87.5s61.333 -34.5 102 -34.5h121v-188h-117zM1247 -0.00292969z" />
    <glyph glyph-name="afii52400" unicode="&#x622;" horiz-adv-x="494" arabic-form="isolated" 
d="M330 0h-166v1556h166v-1556zM510 1702c-12.667 -10 -31.8291 -21.498 -57.4961 -34.498s-55.5 -19.5 -89.5 -19.5c-26 0 -64.5 10.333 -115.5 31s-89.167 31 -114.5 31c-22 0 -48.333 -8.33301 -79 -25s-53.334 -29.667 -68.001 -39v101
c11.333 9.33301 32.166 21.166 62.499 35.499s58.5 21.5 84.5 21.5c23.333 0 61.166 -10.167 113.499 -30.5s91.166 -30.5 116.499 -30.5c28.667 0 58.167 7.66699 88.5 23s49.833 26.666 58.5 33.999v-98z" />
    <glyph glyph-name="afii57411" unicode="&#x623;" horiz-adv-x="494" arabic-form="isolated" 
d="M330 0h-166v1556h166v-1556zM415 1678h-336v94h74c-16 8.66699 -29.167 22.667 -39.5 42s-15.5 39.333 -15.5 60c0 42.667 15.667 80 47 112s73.666 48 126.999 48c35.333 0 61.5 -2 78.5 -6s28.833 -7.33301 35.5 -10v-101h-6c-9.33301 4 -25.166 8.83301 -47.499 14.5
s-41.833 8.5 -58.5 8.5c-29.333 0 -51.333 -6 -66 -18s-22 -28 -22 -48c0 -30 15.333 -54.5 46 -73.5s67 -28.5 109 -28.5h74v-94z" />
    <glyph glyph-name="afii57412" unicode="&#x624;" horiz-adv-x="854" arabic-form="isolated" 
d="M760 186c0 -124 -30.001 -229.331 -90.001 -315.998s-143 -152 -249 -196c-84.667 -36.667 -171.667 -62.167 -261 -76.5s-182.333 -21.5 -279 -21.5v188c88 0 170.833 5.5 248.5 16.5s145.167 27.5 202.5 49.5c77.333 29.333 139.333 69.666 186 120.999s70 119 70 203
c-9.33301 -6 -30.5 -14.333 -63.5 -25s-63.833 -16 -92.5 -16c-114.667 0 -204 30.5 -268 91.5s-96 136.167 -96 225.5c0 101.333 32.833 189.166 98.5 263.499s138.5 111.5 218.5 111.5c110.667 0 200.834 -57.667 270.501 -173s104.5 -264 104.5 -446zM574.999 340.002
c0 18.667 -3.99902 43.5 -11.999 74.5s-20.333 62.5 -37 94.5c-14.667 28 -33.334 52.833 -56.001 74.5s-47 32.5 -73 32.5c-46 0 -83.667 -18.833 -113 -56.5s-44 -78.834 -44 -123.501c0 -39.333 18.167 -71.666 54.5 -96.999s84.833 -38 145.5 -38
c28.667 0 55.667 4.5 81 13.5s43.333 17.5 54 25.5zM551 971.002h-336v94h74c-16 8.66699 -29.167 22.667 -39.5 42s-15.5 39.333 -15.5 60c0 42.667 15.667 80 47 112s73.666 48 126.999 48c35.333 0 61.5 -2 78.5 -6s28.833 -7.33301 35.5 -10v-101h-6
c-9.33301 4 -25.166 8.83301 -47.499 14.5s-41.833 8.5 -58.5 8.5c-29.333 0 -51.333 -6 -66 -18s-22 -28 -22 -48c0 -30 15.333 -54.5 46 -73.5s67 -28.5 109 -28.5h74v-94z" />
    <glyph glyph-name="afii57413" unicode="&#x625;" horiz-adv-x="494" arabic-form="isolated" 
d="M330 0h-166v1556h166v-1556zM418 -423h-336v94h74c-16 8.66699 -29.167 22.667 -39.5 42s-15.5 39.333 -15.5 60c0 42.667 15.667 80 47 112s73.666 48 126.999 48c35.333 0 61.5 -2 78.5 -6s28.833 -7.33301 35.5 -10v-101h-6c-9.33301 4 -25.166 8.83301 -47.499 14.5
s-41.833 8.5 -58.5 8.5c-29.333 0 -51.333 -6 -66 -18s-22 -28 -22 -48c0 -30 15.333 -54.5 46 -73.5s67 -28.5 109 -28.5h74v-94z" />
    <glyph glyph-name="afii57414" unicode="&#x626;" horiz-adv-x="1786" arabic-form="isolated" 
d="M1698 846l-9.99609 -0.00292969c-46.667 28.667 -101.334 53.834 -164.001 75.501s-131.667 32.5 -207 32.5c-62.667 0 -118.667 -13.333 -168 -40s-74 -61 -74 -103c0 -35.333 35.5 -67 106.5 -95l190.5 -73c34 -12.667 70.167 -28.167 108.5 -46.5
s70.166 -37.166 95.499 -56.499c29.333 -21.333 52.166 -44.333 68.499 -69s24.5 -54.667 24.5 -90c0 -124.667 -80.667 -219.334 -242 -284.001s-401.333 -97 -720 -97c-212.667 0 -368.334 35.5 -467.001 106.5s-148 182.833 -148 335.5c0 52 3.16699 104 9.5 156
s10.166 84 11.499 96h172v-10c-2 -10 -7 -43.167 -15 -99.5s-12 -103.166 -12 -140.499c0 -93.333 34.167 -159.333 102.5 -198s184.5 -58 348.5 -58c267.333 0 466.5 16.833 597.5 50.5s196.5 80.5 196.5 140.5c0 30.667 -35.5 59.334 -106.5 86.001l-190.5 72
c-36 14 -72.167 30 -108.5 48s-68.166 37.667 -95.499 59c-28 22 -50.5 46.833 -67.5 74.5s-25.5 59.167 -25.5 94.5c0 86.667 38.667 162.667 116 228s175.333 98 294 98c81.333 0 153.5 -8 216.5 -24s117.167 -34.667 162.5 -56v-213zM696.004 866.997h-336v94h74
c-16 8.66699 -29.167 22.667 -39.5 42s-15.5 39.333 -15.5 60c0 42.667 15.667 80 47 112s73.666 48 126.999 48c35.333 0 61.5 -2 78.5 -6s28.833 -7.33301 35.5 -10v-101h-6c-9.33301 4 -25.166 8.83301 -47.499 14.5s-41.833 8.5 -58.5 8.5c-29.333 0 -51.333 -6 -66 -18
s-22 -28 -22 -48c0 -30 15.333 -54.5 46 -73.5s67 -28.5 109 -28.5h74v-94z" />
    <glyph glyph-name="afii57415" unicode="&#x627;" horiz-adv-x="494" arabic-form="isolated" 
d="M330 0h-166v1556h166v-1556z" />
    <glyph glyph-name="afii57416" unicode="&#x628;" horiz-adv-x="1653" arabic-form="isolated" 
d="M1086 199c73.333 15.333 134.335 38.998 183.002 70.998c45.333 30 77.666 64.333 96.999 103s29 81.667 29 129c0 20.667 -3.66699 50.834 -11 90.501l-16 85.5v10h172l13 -88.5c5.33301 -37 8 -73.833 8 -110.5c0 -161.333 -60.5 -285.166 -181.5 -371.499
s-305.833 -129.5 -554.5 -129.5c-245.333 0 -428.833 43.333 -550.5 130s-182.5 210.334 -182.5 371.001c0 36.667 2.66699 73.5 8 110.5l13 88.5h172v-10l-16 -85.5c-7.33301 -39.667 -11 -69.834 -11 -90.501c0 -47.333 9.5 -90.5 28.5 -129.5s51.5 -73.167 97.5 -102.5
c48.667 -32 110 -55.667 184 -71s160.333 -23 259 -23c99.333 0 185.666 7.66699 258.999 23zM901.002 -319.002h-148v148h148v-148z" />
    <glyph glyph-name="afii57417" unicode="&#x629;" horiz-adv-x="965" arabic-form="isolated" 
d="M872 403c0 -130 -36.501 -231.667 -109.501 -305s-169.5 -110 -289.5 -110c-107.333 0 -197.666 39.167 -270.999 117.5s-110 176.833 -110 295.5c0 78.667 19.333 146.667 58 204s106 115 202 173l68 41l-135 152h233l238 -269c35.333 -39.333 63.5 -83.5 84.5 -132.5
s31.5 -104.5 31.5 -166.5zM632.999 230c22.667 20 40.666 43.001 53.999 69.001s20 60.667 20 104c0 38 -18.167 84.333 -54.5 139s-74.166 104 -113.499 148l-21 23l-67 -41c-56.667 -34 -103 -72.167 -139 -114.5s-54 -93.833 -54 -154.5c0 -59.333 21.5 -112 64.5 -158
s93.167 -69 150.5 -69c26.667 0 55 4.66699 85 14s55 22.666 75 39.999zM372.998 1196h-148v148h148v-148zM640.998 1196h-148v148h148v-148z" />
    <glyph glyph-name="afii57418" unicode="&#x62a;" horiz-adv-x="1653" arabic-form="isolated" 
d="M1086 199c73.333 15.333 134.335 38.998 183.002 70.998c45.333 30 77.666 64.333 96.999 103s29 81.667 29 129c0 20.667 -3.66699 50.834 -11 90.501l-16 85.5v10h172l13 -88.5c5.33301 -37 8 -73.833 8 -110.5c0 -161.333 -60.5 -285.166 -181.5 -371.499
s-305.833 -129.5 -554.5 -129.5c-245.333 0 -428.833 43.333 -550.5 130s-182.5 210.334 -182.5 371.001c0 36.667 2.66699 73.5 8 110.5l13 88.5h172v-10l-16 -85.5c-7.33301 -39.667 -11 -69.834 -11 -90.501c0 -47.333 9.5 -90.5 28.5 -129.5s51.5 -73.167 97.5 -102.5
c48.667 -32 110 -55.667 184 -71s160.333 -23 259 -23c99.333 0 185.666 7.66699 258.999 23zM769.002 814.998h-148v148h148v-148zM1037 814.998h-148v148h148v-148z" />
    <glyph glyph-name="afii57419" unicode="&#x62b;" horiz-adv-x="1653" arabic-form="isolated" 
d="M1086 199c73.333 15.333 134.335 38.998 183.002 70.998c45.333 30 77.666 64.333 96.999 103s29 81.667 29 129c0 20.667 -3.66699 50.834 -11 90.501l-16 85.5v10h172l13 -88.5c5.33301 -37 8 -73.833 8 -110.5c0 -161.333 -60.5 -285.166 -181.5 -371.499
s-305.833 -129.5 -554.5 -129.5c-245.333 0 -428.833 43.333 -550.5 130s-182.5 210.334 -182.5 371.001c0 36.667 2.66699 73.5 8 110.5l13 88.5h172v-10l-16 -85.5c-7.33301 -39.667 -11 -69.834 -11 -90.501c0 -47.333 9.5 -90.5 28.5 -129.5s51.5 -73.167 97.5 -102.5
c48.667 -32 110 -55.667 184 -71s160.333 -23 259 -23c99.333 0 185.666 7.66699 258.999 23zM749.002 814.998h-148v148h148v-148zM1045 814.998h-148v148h148v-148zM897.002 1024h-148v148h148v-148z" />
    <glyph glyph-name="afii57420" unicode="&#x62c;" horiz-adv-x="1247" arabic-form="isolated" 
d="M1120 561l-30 -0.00195312c-136 0 -254.167 -8.16699 -354.5 -24.5s-188.5 -43.166 -264.5 -80.499c-71.333 -34.667 -126.666 -81.167 -165.999 -139.5s-59 -126.833 -59 -205.5c0 -105.333 38.167 -190.166 114.5 -254.499s174.5 -96.5 294.5 -96.5
c90.667 0 172.334 10.5 245.001 31.5s136 48.833 190 83.5h10v-201c-58.667 -30 -120.334 -53.833 -185.001 -71.5s-150.667 -26.5 -258 -26.5c-170 0 -308.667 48.833 -416 146.5s-161 227.834 -161 390.501c0 77.333 18.667 151.5 56 222.5s97 133.833 179 188.5
c67.333 45.333 143.666 80.166 228.999 104.499s169.666 38.833 252.999 43.5c-81.333 38 -160.666 64.167 -237.999 78.5s-170 21.5 -278 21.5h-76v186h88c108 0 230.667 -21.5 368 -64.5s266 -101.833 386 -176.5h73v-156zM758 65.998h-148v148h148v-148z" />
    <glyph glyph-name="afii57421" unicode="&#x62d;" horiz-adv-x="1247" arabic-form="isolated" 
d="M1120 561l-30 -0.00195312c-136 0 -254.167 -8.16699 -354.5 -24.5s-188.5 -43.166 -264.5 -80.499c-71.333 -34.667 -126.666 -81.167 -165.999 -139.5s-59 -126.833 -59 -205.5c0 -105.333 38.167 -190.166 114.5 -254.499s174.5 -96.5 294.5 -96.5
c90.667 0 172.334 10.5 245.001 31.5s136 48.833 190 83.5h10v-201c-58.667 -30 -120.334 -53.833 -185.001 -71.5s-150.667 -26.5 -258 -26.5c-170 0 -308.667 48.833 -416 146.5s-161 227.834 -161 390.501c0 77.333 18.667 151.5 56 222.5s97 133.833 179 188.5
c67.333 45.333 143.666 80.166 228.999 104.499s169.666 38.833 252.999 43.5c-81.333 38 -160.666 64.167 -237.999 78.5s-170 21.5 -278 21.5h-76v186h88c108 0 230.667 -21.5 368 -64.5s266 -101.833 386 -176.5h73v-156z" />
    <glyph glyph-name="afii57422" unicode="&#x62e;" horiz-adv-x="1247" arabic-form="isolated" 
d="M1120 561l-30 -0.00195312c-136 0 -254.167 -8.16699 -354.5 -24.5s-188.5 -43.166 -264.5 -80.499c-71.333 -34.667 -126.666 -81.167 -165.999 -139.5s-59 -126.833 -59 -205.5c0 -105.333 38.167 -190.166 114.5 -254.499s174.5 -96.5 294.5 -96.5
c90.667 0 172.334 10.5 245.001 31.5s136 48.833 190 83.5h10v-201c-58.667 -30 -120.334 -53.833 -185.001 -71.5s-150.667 -26.5 -258 -26.5c-170 0 -308.667 48.833 -416 146.5s-161 227.834 -161 390.501c0 77.333 18.667 151.5 56 222.5s97 133.833 179 188.5
c67.333 45.333 143.666 80.166 228.999 104.499s169.666 38.833 252.999 43.5c-81.333 38 -160.666 64.167 -237.999 78.5s-170 21.5 -278 21.5h-76v186h88c108 0 230.667 -21.5 368 -64.5s266 -101.833 386 -176.5h73v-156zM918 1079h-148v148h148v-148z" />
    <glyph glyph-name="afii57423" unicode="&#x62f;" horiz-adv-x="958" arabic-form="isolated" 
d="M645 665c66.667 -61.333 118.832 -120.5 156.499 -177.5s56.5 -111.5 56.5 -163.5c0 -38.667 -7.66699 -78.334 -23 -119.001s-38 -75.334 -68 -104.001c-34.667 -32.667 -76.667 -57.667 -126 -75s-106 -26 -170 -26h-379v188h377c70 0 124.667 12.167 164 36.5
s59 56.833 59 97.5c0 28 -12.667 59.167 -38 93.5s-58.333 69.5 -99 105.5c-40.667 36.667 -84.667 72.334 -132 107.001s-101.666 72.334 -162.999 113.001v215h10l184.5 -136c77.667 -58 141.167 -109.667 190.5 -155z" />
    <glyph glyph-name="afii57424" unicode="&#x630;" horiz-adv-x="958" arabic-form="isolated" 
d="M645 665c66.667 -61.333 118.832 -120.5 156.499 -177.5s56.5 -111.5 56.5 -163.5c0 -38.667 -7.66699 -78.334 -23 -119.001s-38 -75.334 -68 -104.001c-34.667 -32.667 -76.667 -57.667 -126 -75s-106 -26 -170 -26h-379v188h377c70 0 124.667 12.167 164 36.5
s59 56.833 59 97.5c0 28 -12.667 59.167 -38 93.5s-58.333 69.5 -99 105.5c-40.667 36.667 -84.667 72.334 -132 107.001s-101.666 72.334 -162.999 113.001v215h10l184.5 -136c77.667 -58 141.167 -109.667 190.5 -155zM409.998 1178h-148v148h148v-148z" />
    <glyph glyph-name="afii57425" unicode="&#x631;" horiz-adv-x="741" arabic-form="isolated" 
d="M659 186c0 -110.667 -25.1689 -207.498 -75.502 -290.498s-125.833 -151.5 -226.5 -205.5c-80 -42.667 -162.667 -72.334 -248 -89.001s-158 -25 -218 -25v188c42.667 0 100.334 5.83301 173.001 17.5s137.334 30.834 194.001 57.501
c76.667 35.333 134 79.166 172 131.499s57 113.5 57 183.5c0 57.333 -11.167 115.666 -33.5 174.999s-52.833 117.666 -91.5 174.999v12h193c26 -47.333 49.833 -100.666 71.5 -159.999s32.5 -116 32.5 -170z" />
    <glyph glyph-name="afii57426" unicode="&#x632;" horiz-adv-x="741" arabic-form="isolated" 
d="M659 186c0 -110.667 -25.1689 -207.498 -75.502 -290.498s-125.833 -151.5 -226.5 -205.5c-80 -42.667 -162.667 -72.334 -248 -89.001s-158 -25 -218 -25v188c42.667 0 100.334 5.83301 173.001 17.5s137.334 30.834 194.001 57.501
c76.667 35.333 134 79.166 172 131.499s57 113.5 57 183.5c0 57.333 -11.167 115.666 -33.5 174.999s-52.833 117.666 -91.5 174.999v12h193c26 -47.333 49.833 -100.666 71.5 -159.999s32.5 -116 32.5 -170zM483.998 752.002h-148v148h148v-148z" />
    <glyph glyph-name="afii57427" unicode="&#x633;" horiz-adv-x="2478" arabic-form="isolated" 
d="M2374 446c0 -68 -8.1709 -130.166 -24.5039 -186.499s-40.166 -103.833 -71.5 -142.5c-33.333 -40.667 -73.666 -71.334 -120.999 -92.001s-101.333 -31 -162 -31c-51.333 0 -101.833 9 -151.5 27s-86.5 42.333 -110.5 73c-38 -31.333 -77 -55.833 -117 -73.5
s-95.333 -26.5 -166 -26.5c-50 0 -97.667 6.33301 -143 19s-80.333 28 -105 46c-10 -134.667 -70.167 -248.834 -180.5 -342.501s-246.166 -140.5 -407.499 -140.5c-77.333 0 -148.666 9.66699 -213.999 29s-120.666 49.666 -165.999 90.999s-80.333 95 -105 161
s-37 144.333 -37 235c0 66.667 4.16699 132.667 12.5 198s13.166 102.333 14.499 111h182v-16c-7.33301 -24.667 -16.333 -67.167 -27 -127.5s-16 -116.166 -16 -167.499c0 -103.333 29.5 -183.5 88.5 -240.5s148.167 -85.5 267.5 -85.5c138 0 242.833 36.333 314.5 109
s107.5 181.334 107.5 326.001c0 56 -1.66699 122.5 -5 199.5s-5.66602 125.833 -6.99902 146.5h178c0 -136.667 20.5 -231.334 61.5 -284.001s103.167 -79 186.5 -79c73.333 0 128.5 21.5 165.5 64.5s55.5 103.5 55.5 181.5v117h166v-150c0 -69.333 15 -122.166 45 -158.499
s68.333 -54.5 115 -54.5c74.667 0 128.5 21.833 161.5 65.5s49.5 114.167 49.5 211.5v258h166v-271z" />
    <glyph glyph-name="afii57428" unicode="&#x634;" horiz-adv-x="2478" arabic-form="isolated" 
d="M2374 446c0 -68 -8.1709 -130.166 -24.5039 -186.499s-40.166 -103.833 -71.5 -142.5c-33.333 -40.667 -73.666 -71.334 -120.999 -92.001s-101.333 -31 -162 -31c-51.333 0 -101.833 9 -151.5 27s-86.5 42.333 -110.5 73c-38 -31.333 -77 -55.833 -117 -73.5
s-95.333 -26.5 -166 -26.5c-50 0 -97.667 6.33301 -143 19s-80.333 28 -105 46c-10 -134.667 -70.167 -248.834 -180.5 -342.501s-246.166 -140.5 -407.499 -140.5c-77.333 0 -148.666 9.66699 -213.999 29s-120.666 49.666 -165.999 90.999s-80.333 95 -105 161
s-37 144.333 -37 235c0 66.667 4.16699 132.667 12.5 198s13.166 102.333 14.499 111h182v-16c-7.33301 -24.667 -16.333 -67.167 -27 -127.5s-16 -116.166 -16 -167.499c0 -103.333 29.5 -183.5 88.5 -240.5s148.167 -85.5 267.5 -85.5c138 0 242.833 36.333 314.5 109
s107.5 181.334 107.5 326.001c0 56 -1.66699 122.5 -5 199.5s-5.66602 125.833 -6.99902 146.5h178c0 -136.667 20.5 -231.334 61.5 -284.001s103.167 -79 186.5 -79c73.333 0 128.5 21.5 165.5 64.5s55.5 103.5 55.5 181.5v117h166v-150c0 -69.333 15 -122.166 45 -158.499
s68.333 -54.5 115 -54.5c74.667 0 128.5 21.833 161.5 65.5s49.5 114.167 49.5 211.5v258h166v-271zM1356 801.001h-148v148h148v-148zM1652 801.001h-148v148h148v-148zM1504 1010h-148v148h148v-148z" />
    <glyph glyph-name="afii57429" unicode="&#x635;" horiz-adv-x="2365" arabic-form="isolated" 
d="M2273 408c0 -70.667 -17.3379 -132.164 -52.0049 -184.497s-79.667 -94.5 -135 -126.5c-54.667 -32 -117.667 -56.167 -189 -72.5s-144.666 -24.5 -219.999 -24.5h-571c-18.667 -131.333 -75 -234.833 -169 -310.5s-214.667 -113.5 -362 -113.5
c-148 0 -265.5 42.167 -352.5 126.5s-130.5 202.5 -130.5 354.5c0 95.333 4 171.666 12 228.999s13 91.666 15 102.999h182v-16c-8 -32 -17.167 -80.333 -27.5 -145s-15.5 -122.334 -15.5 -173.001c0 -98 28.833 -171 86.5 -219s133.834 -72 228.501 -72
c56.667 0 108 6.66699 154 20s85 37 117 71c34.667 36 60.334 82.5 77.001 139.5s25 125.167 25 204.5c0 57.333 -1.66699 101 -5 131s-5.66602 49.667 -6.99902 59h178v-12c0 -38 6 -73.667 18 -107s27.333 -57 46 -71c98.667 167.333 214.167 311.833 346.5 433.5
s251.5 182.5 357.5 182.5c112.667 0 206.334 -38.5 281.001 -115.5s112 -174.167 112 -291.5zM1925 227.003c71.333 22 119.501 47.834 144.501 77.501s37.5 62.5 37.5 98.5c0 57.333 -20.667 109.333 -62 156s-97 70 -167 70c-40.667 0 -85 -15.5 -133 -46.5
s-97.333 -70.167 -148 -117.5c-44.667 -41.333 -88.334 -87.5 -131.001 -138.5s-77.334 -97.167 -104.001 -138.5h174c57.333 0 125.333 3.16699 204 9.5s140.334 16.166 185.001 29.499z" />
    <glyph glyph-name="afii57430" unicode="&#x636;" horiz-adv-x="2365" arabic-form="isolated" 
d="M2273 408c0 -70.667 -17.3379 -132.164 -52.0049 -184.497s-79.667 -94.5 -135 -126.5c-54.667 -32 -117.667 -56.167 -189 -72.5s-144.666 -24.5 -219.999 -24.5h-571c-18.667 -131.333 -75 -234.833 -169 -310.5s-214.667 -113.5 -362 -113.5
c-148 0 -265.5 42.167 -352.5 126.5s-130.5 202.5 -130.5 354.5c0 95.333 4 171.666 12 228.999s13 91.666 15 102.999h182v-16c-8 -32 -17.167 -80.333 -27.5 -145s-15.5 -122.334 -15.5 -173.001c0 -98 28.833 -171 86.5 -219s133.834 -72 228.501 -72
c56.667 0 108 6.66699 154 20s85 37 117 71c34.667 36 60.334 82.5 77.001 139.5s25 125.167 25 204.5c0 57.333 -1.66699 101 -5 131s-5.66602 49.667 -6.99902 59h178v-12c0 -38 6 -73.667 18 -107s27.333 -57 46 -71c98.667 167.333 214.167 311.833 346.5 433.5
s251.5 182.5 357.5 182.5c112.667 0 206.334 -38.5 281.001 -115.5s112 -174.167 112 -291.5zM1925 227.003c71.333 22 119.501 47.834 144.501 77.501s37.5 62.5 37.5 98.5c0 57.333 -20.667 109.333 -62 156s-97 70 -167 70c-40.667 0 -85 -15.5 -133 -46.5
s-97.333 -70.167 -148 -117.5c-44.667 -41.333 -88.334 -87.5 -131.001 -138.5s-77.334 -97.167 -104.001 -138.5h174c57.333 0 125.333 3.16699 204 9.5s140.334 16.166 185.001 29.499zM1776 1063h-148v148h148v-148z" />
    <glyph glyph-name="afii57431" unicode="&#x637;" horiz-adv-x="1380" arabic-form="isolated" 
d="M1329 408c0 -56 -13.0029 -108.832 -39.0029 -158.499s-64.667 -92.834 -116 -129.501s-115.5 -65.834 -192.5 -87.501s-167.833 -32.5 -272.5 -32.5h-779v188h237c6 0 12.833 3 20.5 9s15.834 13.667 24.501 23c10 10.667 18.5 20.334 25.5 29.001s10.5 17.667 10.5 27
v1280h166v-1079c78.667 94.667 165.334 174.667 260.001 240s181.334 98 260.001 98c110.667 0 204.167 -37.167 280.5 -111.5s114.5 -172.833 114.5 -295.5zM1163 403.001c0 64.667 -22.9971 118.501 -68.9971 161.501s-100 64.5 -162 64.5c-40.667 0 -85 -15.5 -133 -46.5
s-97.333 -70.167 -148 -117.5c-44.667 -41.333 -88.334 -87.5 -131.001 -138.5s-77.334 -97.167 -104.001 -138.5h174c57.333 0 125.5 3.16699 204.5 9.5s140.833 16.166 185.5 29.499c55.333 16 99.666 37.667 132.999 65s50 64.333 50 111z" />
    <glyph glyph-name="afii57432" unicode="&#x638;" horiz-adv-x="1380" arabic-form="isolated" 
d="M1329 408c0 -56 -13.0029 -108.832 -39.0029 -158.499s-64.667 -92.834 -116 -129.501s-115.5 -65.834 -192.5 -87.501s-167.833 -32.5 -272.5 -32.5h-779v188h237c6 0 12.833 3 20.5 9s15.834 13.667 24.501 23c10 10.667 18.5 20.334 25.5 29.001s10.5 17.667 10.5 27
v1280h166v-1079c78.667 94.667 165.334 174.667 260.001 240s181.334 98 260.001 98c110.667 0 204.167 -37.167 280.5 -111.5s114.5 -172.833 114.5 -295.5zM1163 403.001c0 64.667 -22.9971 118.501 -68.9971 161.501s-100 64.5 -162 64.5c-40.667 0 -85 -15.5 -133 -46.5
s-97.333 -70.167 -148 -117.5c-44.667 -41.333 -88.334 -87.5 -131.001 -138.5s-77.334 -97.167 -104.001 -138.5h174c57.333 0 125.5 3.16699 204.5 9.5s140.833 16.166 185.5 29.499c55.333 16 99.666 37.667 132.999 65s50 64.333 50 111zM824 1063h-148v148h148v-148z
" />
    <glyph glyph-name="afii57433" unicode="&#x639;" horiz-adv-x="1241" arabic-form="isolated" 
d="M1094 -319c-50.667 -31.333 -115.166 -56.6689 -193.499 -76.002s-157.833 -29 -238.5 -29c-182.667 0 -325 43.667 -427 131s-153 202.666 -153 345.999c0 79.333 18 149.5 54 210.5s86.333 111.833 151 152.5c-26.667 15.333 -56.167 46.333 -88.5 93
s-48.5 97.667 -48.5 153c0 116.667 37.167 211.334 111.5 284.001s170.833 109 289.5 109c48.667 0 94.5 -4.16699 137.5 -12.5s68.167 -13.166 75.5 -14.499v-188h-10c-17.333 4.66699 -45.5 10.834 -84.5 18.501s-75.833 11.5 -110.5 11.5
c-78.667 0 -139 -19.833 -181 -59.5s-63 -90.834 -63 -153.501c0 -35.333 12 -69.666 36 -102.999s48.333 -56.333 73 -69l477 170v-174l-424 -149c-76.667 -26.667 -134 -64.5 -172 -113.5s-57 -103.5 -57 -163.5c0 -88 36.667 -159.167 110 -213.5
s173.666 -81.5 300.999 -81.5c70 0 146.667 13.833 230 41.5s148 58.5 194 92.5h11v-213z" />
    <glyph glyph-name="afii57434" unicode="&#x63a;" horiz-adv-x="1241" arabic-form="isolated" 
d="M1094 -319c-50.667 -31.333 -115.166 -56.6689 -193.499 -76.002s-157.833 -29 -238.5 -29c-182.667 0 -325 43.667 -427 131s-153 202.666 -153 345.999c0 79.333 18 149.5 54 210.5s86.333 111.833 151 152.5c-26.667 15.333 -56.167 46.333 -88.5 93
s-48.5 97.667 -48.5 153c0 116.667 37.167 211.334 111.5 284.001s170.833 109 289.5 109c48.667 0 94.5 -4.16699 137.5 -12.5s68.167 -13.166 75.5 -14.499v-188h-10c-17.333 4.66699 -45.5 10.834 -84.5 18.501s-75.833 11.5 -110.5 11.5
c-78.667 0 -139 -19.833 -181 -59.5s-63 -90.834 -63 -153.501c0 -35.333 12 -69.666 36 -102.999s48.333 -56.333 73 -69l477 170v-174l-424 -149c-76.667 -26.667 -134 -64.5 -172 -113.5s-57 -103.5 -57 -163.5c0 -88 36.667 -159.167 110 -213.5
s173.666 -81.5 300.999 -81.5c70 0 146.667 13.833 230 41.5s148 58.5 194 92.5h11v-213zM625.001 1237h-148v148h148v-148z" />
    <glyph glyph-name="afii57441" unicode="&#x641;" horiz-adv-x="1782" arabic-form="isolated" 
d="M1696 467c0 -94.667 -22.334 -173.167 -67.001 -235.5s-105.667 -111.166 -183 -146.499c-75.333 -34 -165.5 -58.667 -270.5 -74s-221.833 -23 -350.5 -23c-245.333 0 -428.833 43.333 -550.5 130s-182.5 210.334 -182.5 371.001c0 52.667 2.66699 98.667 8 138
s8.33301 61.666 9 66.999h163v-10c-3.33301 -20.667 -6.5 -49.334 -9.5 -86.001s-4.5 -68.667 -4.5 -96c0 -47.333 9.5 -90.5 28.5 -129.5s51.5 -73.167 97.5 -102.5c48.667 -32 110 -55.667 184 -71s160.333 -23 259 -23c232 0 406.167 22.167 522.5 66.5
s174.5 113.166 174.5 206.499v12c-12 -7.33301 -34 -16 -66 -26s-62 -15 -90 -15c-112 0 -200.667 29.833 -266 89.5s-98 135.5 -98 227.5c0 96 32.667 182.5 98 259.5s138.333 115.5 219 115.5c112.667 0 203.334 -58.167 272.001 -174.5s103 -273.166 103 -470.499z
M1511 647c0 18.667 -3.99902 43.5 -11.999 74.5s-20.333 62.5 -37 94.5c-17.333 33.333 -36.833 59.666 -58.5 78.999s-45.167 29 -70.5 29c-48.667 0 -87 -19.333 -115 -58s-42 -79.667 -42 -123c0 -39.333 17.833 -71.666 53.5 -96.999s84.5 -38 146.5 -38
c25.333 0 50.666 4 75.999 12s45 17 59 27zM1264 1319h-148v148h148v-148z" />
    <glyph glyph-name="afii57442" unicode="&#x642;" horiz-adv-x="1782" arabic-form="isolated" 
d="M1696 518c0 -95.333 -23.333 -186.5 -70 -273.5s-111 -163.5 -193 -229.5c-83.333 -67.333 -175.5 -119.5 -276.5 -156.5s-211.5 -55.5 -331.5 -55.5c-245.333 0 -428.833 43.5 -550.5 130.5s-182.5 210.833 -182.5 371.5c0 67.333 2.5 116.833 7.5 148.5
s8.16699 50.5 9.5 56.5h163v-10c-1.33301 -10.667 -4 -33.334 -8 -68.001s-6 -73 -6 -115c0 -46.667 9.66699 -89.667 29 -129s51.666 -73.666 96.999 -102.999s103 -52.166 173 -68.499s160 -24.5 270 -24.5c109.333 0 207.666 16.333 294.999 49
s160.666 74.667 219.999 126c60 51.333 105.333 106.333 136 165s46 114.667 46 168v12c-11.333 -6.66699 -32.166 -15.167 -62.499 -25.5s-61.5 -15.5 -93.5 -15.5c-59.333 0 -111.666 8.33301 -156.999 25s-84 40.667 -116 72c-30.667 30 -53.5 63.833 -68.5 101.5
s-22.5 77.167 -22.5 118.5c0 97.333 33 184.166 99 260.499s138.667 114.5 218 114.5c110.667 0 200.834 -57 270.501 -171s104.5 -272 104.5 -474zM1511 698c0 18.667 -4 43.5 -12 74.5s-20.333 62.5 -37 94.5c-17.333 33.333 -36.833 59.666 -58.5 78.999
s-45.167 29 -70.5 29c-49.333 0 -87.833 -18.5 -115.5 -55.5s-41.5 -78.5 -41.5 -124.5c0 -39.333 18.167 -71.833 54.5 -97.5s84.833 -38.5 145.5 -38.5c30.667 0 58.667 4.83301 84 14.5s42.333 17.834 51 24.501zM1456 1370h-147v148h147v-148zM1188 1370h-148v148h148
v-148z" />
    <glyph glyph-name="afii57443" unicode="&#x643;" horiz-adv-x="1485" arabic-form="isolated" 
d="M1362 453c0 -148 -34.333 -260.502 -103 -337.502s-160.667 -115.5 -276 -115.5h-514c-49.333 0 -97.333 4 -144 12s-87 23 -121 45c-34.667 22.667 -62 54.334 -82 95.001s-30 93 -30 157c0 26 1.16699 51.167 3.5 75.5s3.83301 39.5 4.5 45.5h168v-10
c-0.666992 -5.33301 -2.5 -17.166 -5.5 -35.499s-4.5 -42.833 -4.5 -73.5c0 -46 19 -78 57 -96s89.333 -27 154 -27h518c39.333 0 73 8.16699 101 24.5s49.667 37.5 65 63.5c14.667 24 25.5 52 32.5 84s10.5 67 10.5 105v1091h166v-1103zM924 734.998
c0 -56.667 -33.668 -101.833 -101.001 -135.5s-154.666 -50.5 -261.999 -50.5v94c77.333 0 141.666 7 192.999 21s77 34.333 77 61c0 12 -6.5 22 -19.5 30s-31.5 15 -55.5 21l-76 19c-35.333 8 -63.666 23 -84.999 45s-32 51.333 -32 88c0 46.667 23.167 84.5 69.5 113.5
s113.5 43.5 201.5 43.5v-90c-62 0 -108 -5.83301 -138 -17.5s-45 -27.5 -45 -47.5c0 -12 6.66699 -22.5 20 -31.5s32 -16.167 56 -21.5l84 -21c30 -6.66699 56.333 -19 79 -37s34 -46 34 -84z" />
    <glyph glyph-name="afii57444" unicode="&#x644;" horiz-adv-x="1325" arabic-form="isolated" 
d="M1202 440c0 -141.333 -52.833 -252.001 -158.5 -332.001s-253.5 -120 -443.5 -120c-184.667 0 -315.5 33.5 -392.5 100.5s-115.5 180.833 -115.5 341.5c0 52 3.33301 105.667 10 161l11 91h172v-10c-2 -9.33301 -7 -42.666 -15 -99.999s-12 -104 -12 -140
c0 -51.333 4.5 -92.333 13.5 -123s24.833 -55.667 47.5 -75c24 -20 58.5 -34.667 103.5 -44s104.833 -14 179.5 -14c76 0 141.5 8 196.5 24s99.833 37 134.5 63c36 27.333 62.167 57 78.5 89s24.5 65.667 24.5 101v1103h166v-1116z" />
    <glyph glyph-name="afii57445" unicode="&#x645;" horiz-adv-x="1210" arabic-form="isolated" 
d="M983 655c38 -38 67.998 -84.167 89.998 -138.5s33 -113.833 33 -178.5c0 -102 -30.833 -186.5 -92.5 -253.5s-139.5 -100.5 -233.5 -100.5c-44.667 0 -85.834 6.66699 -123.501 20s-71.167 30.333 -100.5 51c-28.667 20.667 -52.5 42.5 -71.5 65.5
s-33.833 45.5 -44.5 67.5c-67.333 -181.333 -149.5 -319.333 -246.5 -414s-214.167 -160.667 -351.5 -198v207c106 24.667 190 68.5 252 131.5s112.667 138.5 152 226.5c26 59.333 50.667 127.5 74 204.5s49.333 145.167 78 204.5
c32.667 70.667 73.834 125.334 123.501 164.001s110.834 58 183.501 58c53.333 0 103.333 -9.83301 150 -29.5s89.334 -48.834 128.001 -87.501zM939.998 328c0 24 -3.83301 50.8311 -11.5 80.498s-20.5 58.167 -38.5 85.5c-18 25.333 -40 46.333 -66 63s-58.333 25 -97 25
c-52.667 0 -95.167 -15.667 -127.5 -47s-48.5 -71.666 -48.5 -120.999c0 -67.333 20 -125.166 60 -173.499s92.333 -72.5 157 -72.5c53.333 0 95.333 15.333 126 46s46 68.667 46 114z" />
    <glyph glyph-name="afii57446" unicode="&#x646;" horiz-adv-x="1356" arabic-form="isolated" 
d="M1264 530c0 -96 -15.666 -178.501 -46.999 -247.501s-73.333 -125.167 -126 -168.5c-52 -42.667 -112.667 -74.667 -182 -96s-145.666 -32 -228.999 -32c-79.333 0 -154.833 10.333 -226.5 31s-134.167 53 -187.5 97c-54 44.667 -96.5 101.334 -127.5 170.001
s-46.5 150.667 -46.5 246c0 67.333 4.16699 133.666 12.5 198.999s13.166 102.333 14.499 111h182v-17c-8 -26 -17.167 -69.167 -27.5 -129.5s-15.5 -115.5 -15.5 -165.5c0 -106.667 41.333 -192.334 124 -257.001s180.667 -97 294 -97s212 31.833 296 95.5
s126 149.834 126 258.501c0 50 -5.16699 105.167 -15.5 165.5s-19.5 103.5 -27.5 129.5v17h182c1.33301 -8.66699 6.16602 -45.667 14.499 -111s12.5 -131.666 12.5 -198.999zM754.001 976.999h-148v147h148v-147z" />
    <glyph glyph-name="afii57447" unicode="&#x647;" horiz-adv-x="965" arabic-form="isolated" 
d="M872 403c0 -130 -36.501 -231.667 -109.501 -305s-169.5 -110 -289.5 -110c-107.333 0 -197.666 39.167 -270.999 117.5s-110 176.833 -110 295.5c0 78.667 19.333 146.667 58 204s106 115 202 173l68 41l-135 152h233l238 -269c35.333 -39.333 63.5 -83.5 84.5 -132.5
s31.5 -104.5 31.5 -166.5zM632.999 230c22.667 20 40.666 43.001 53.999 69.001s20 60.667 20 104c0 38 -18.167 84.333 -54.5 139s-74.166 104 -113.499 148l-21 23l-67 -41c-56.667 -34 -103 -72.167 -139 -114.5s-54 -93.833 -54 -154.5c0 -59.333 21.5 -112 64.5 -158
s93.167 -69 150.5 -69c26.667 0 55 4.66699 85 14s55 22.666 75 39.999z" />
    <glyph glyph-name="afii57448" unicode="&#x648;" horiz-adv-x="854" arabic-form="isolated" 
d="M760 186c0 -124 -30.001 -229.331 -90.001 -315.998s-143 -152 -249 -196c-84.667 -36.667 -171.667 -62.167 -261 -76.5s-182.333 -21.5 -279 -21.5v188c88 0 170.833 5.5 248.5 16.5s145.167 27.5 202.5 49.5c77.333 29.333 139.333 69.666 186 120.999s70 119 70 203
c-9.33301 -6 -30.5 -14.333 -63.5 -25s-63.833 -16 -92.5 -16c-114.667 0 -204 30.5 -268 91.5s-96 136.167 -96 225.5c0 101.333 32.833 189.166 98.5 263.499s138.5 111.5 218.5 111.5c110.667 0 200.834 -57.667 270.501 -173s104.5 -264 104.5 -446zM574.999 340.002
c0 18.667 -3.99902 43.5 -11.999 74.5s-20.333 62.5 -37 94.5c-14.667 28 -33.334 52.833 -56.001 74.5s-47 32.5 -73 32.5c-46 0 -83.667 -18.833 -113 -56.5s-44 -78.834 -44 -123.501c0 -39.333 18.167 -71.666 54.5 -96.999s84.833 -38 145.5 -38
c28.667 0 55.667 4.5 81 13.5s43.333 17.5 54 25.5z" />
    <glyph glyph-name="afii57449" unicode="&#x649;" horiz-adv-x="1786" arabic-form="isolated" 
d="M1698 846l-9.99609 -0.00292969c-46.667 28.667 -101.334 53.834 -164.001 75.501s-131.667 32.5 -207 32.5c-62.667 0 -118.667 -13.333 -168 -40s-74 -61 -74 -103c0 -35.333 35.5 -67 106.5 -95l190.5 -73c34 -12.667 70.167 -28.167 108.5 -46.5
s70.166 -37.166 95.499 -56.499c29.333 -21.333 52.166 -44.333 68.499 -69s24.5 -54.667 24.5 -90c0 -124.667 -80.667 -219.334 -242 -284.001s-401.333 -97 -720 -97c-212.667 0 -368.334 35.5 -467.001 106.5s-148 182.833 -148 335.5c0 52 3.16699 104 9.5 156
s10.166 84 11.499 96h172v-10c-2 -10 -7 -43.167 -15 -99.5s-12 -103.166 -12 -140.499c0 -93.333 34.167 -159.333 102.5 -198s184.5 -58 348.5 -58c267.333 0 466.5 16.833 597.5 50.5s196.5 80.5 196.5 140.5c0 30.667 -35.5 59.334 -106.5 86.001l-190.5 72
c-36 14 -72.167 30 -108.5 48s-68.166 37.667 -95.499 59c-28 22 -50.5 46.833 -67.5 74.5s-25.5 59.167 -25.5 94.5c0 86.667 38.667 162.667 116 228s175.333 98 294 98c81.333 0 153.5 -8 216.5 -24s117.167 -34.667 162.5 -56v-213z" />
    <glyph glyph-name="afii57450" unicode="&#x64a;" horiz-adv-x="1786" arabic-form="isolated" 
d="M1698 846l-9.99609 -0.00292969c-46.667 28.667 -101.334 53.834 -164.001 75.501s-131.667 32.5 -207 32.5c-62.667 0 -118.667 -13.333 -168 -40s-74 -61 -74 -103c0 -35.333 35.5 -67 106.5 -95l190.5 -73c34 -12.667 70.167 -28.167 108.5 -46.5
s70.166 -37.166 95.499 -56.499c29.333 -21.333 52.166 -44.333 68.499 -69s24.5 -54.667 24.5 -90c0 -124.667 -80.667 -219.334 -242 -284.001s-401.333 -97 -720 -97c-212.667 0 -368.334 35.5 -467.001 106.5s-148 182.833 -148 335.5c0 52 3.16699 104 9.5 156
s10.166 84 11.499 96h172v-10c-2 -10 -7 -43.167 -15 -99.5s-12 -103.166 -12 -140.499c0 -93.333 34.167 -159.333 102.5 -198s184.5 -58 348.5 -58c267.333 0 466.5 16.833 597.5 50.5s196.5 80.5 196.5 140.5c0 30.667 -35.5 59.334 -106.5 86.001l-190.5 72
c-36 14 -72.167 30 -108.5 48s-68.166 37.667 -95.499 59c-28 22 -50.5 46.833 -67.5 74.5s-25.5 59.167 -25.5 94.5c0 86.667 38.667 162.667 116 228s175.333 98 294 98c81.333 0 153.5 -8 216.5 -24s117.167 -34.667 162.5 -56v-213zM685.004 -291.003h-148v148h148v-148
zM953.004 -291.003h-148v148h148v-148z" />
    <glyph glyph-name="uni0671" unicode="&#x671;" horiz-adv-x="494" arabic-form="isolated" 
d="M330 0h-166v1556h166v-1556zM498 1817c0 -105.333 -55.002 -157.999 -165.002 -157.999c-18.667 0 -50 2.66699 -94 8s-77 8 -99 8c-49.333 0 -91.666 -11.333 -126.999 -34v101c33.333 18.667 68.333 28 105 28c27.333 0 46.333 -0.333008 57 -1
c0 40.667 10 80.667 30 120c30.667 60 78.334 90 143.001 90c46 0 82.5 -14.833 109.5 -44.5s40.5 -68.834 40.5 -117.501zM407.998 1817c0 44.667 -20 67 -60 67c-30 0 -53 -15 -69 -45c-13.333 -24 -20 -52.333 -20 -85c35.333 -4.66699 57 -7 65 -7c56 0 84 23.333 84 70
z" />
    <glyph glyph-name="uni0672.fina" unicode="&#x672;" horiz-adv-x="606" 
d="M606 0l-63 -0.000976562c-123.333 0 -217.333 41.833 -282 125.5s-97 192.834 -97 327.501v1103h166v-1091c0 -36.667 3 -70.667 9 -102s17.333 -60.333 34 -87c16.667 -27.333 37.5 -48.833 62.5 -64.5s59.5 -23.5 103.5 -23.5h67v-188zM257 1659
c-20.667 0 -44.334 4.99902 -71.001 14.999s-44.667 15 -54 15c-28.667 0 -67.667 -21.333 -117 -64v101c42.667 38 81.667 57 117 57c12.667 0 44.667 -10 96 -30c-36.667 20 -55 54 -55 102s17.333 87 52 117c32.667 28.667 73.334 43 122.001 43
c40 0 78 -5.33301 114 -16v-101h-6c-36 15.333 -71.333 23 -106 23c-58.667 0 -88 -22 -88 -66c0 -33.333 18.333 -59.666 55 -78.999c30 -15.333 63.333 -23 100 -23h74v-94h-233z" />
    <glyph glyph-name="uni0673.fina" unicode="&#x673;" horiz-adv-x="606" 
d="M606 0l-63 -0.000976562c-123.333 0 -217.333 41.833 -282 125.5s-97 192.834 -97 327.501v1103h166v-1091c0 -36.667 3 -70.667 9 -102s17.333 -60.333 34 -87c16.667 -27.333 37.5 -48.833 62.5 -64.5s59.5 -23.5 103.5 -23.5h67v-188zM257 -389.001
c-20.667 0 -44.334 4.99902 -71.001 14.999s-44.667 15 -54 15c-28.667 0 -67.667 -21.333 -117 -64v101c42.667 38 81.667 57 117 57c12.667 0 44.667 -10 96 -30c-36.667 20 -55 54 -55 102s17.333 87 52 117c32.667 28.667 73.334 43 122.001 43
c40 0 78 -5.33301 114 -16v-101h-6c-36 15.333 -71.333 23 -106 23c-58.667 0 -88 -22 -88 -66c0 -33.333 18.333 -59.666 55 -78.999c30 -15.333 63.333 -23 100 -23h74v-94h-233z" />
    <glyph glyph-name="uni0675.fina" unicode="&#x675;" horiz-adv-x="606" 
d="M606 0l-63 -0.000976562c-123.333 0 -217.333 41.833 -282 125.5s-97 192.834 -97 327.501v1103h166v-1091c0 -36.667 3 -70.667 9 -102s17.333 -60.333 34 -87c16.667 -27.333 37.5 -48.833 62.5 -64.5s59.5 -23.5 103.5 -23.5h67v-188zM724 1200h-336v94h74
c-16 8.66699 -29.167 22.667 -39.5 42s-15.5 39.333 -15.5 60c0 42.667 15.667 80 47 112s73.666 48 126.999 48c35.333 0 61.5 -2 78.5 -6s28.833 -7.33301 35.5 -10v-101h-6c-9.33301 4 -25.166 8.83301 -47.499 14.5s-41.833 8.5 -58.5 8.5c-29.333 0 -51.333 -6 -66 -18
s-22 -28 -22 -48c0 -30 15.333 -54.5 46 -73.5s67 -28.5 109 -28.5h74v-94z" />
    <glyph glyph-name="uni0676.fina" unicode="&#x676;" horiz-adv-x="909" 
d="M909 0l-176.005 -0.000976562c-29.333 -91.333 -77.166 -165.666 -143.499 -222.999s-146.166 -101.666 -239.499 -132.999c-84.667 -28.667 -168.667 -47.167 -252 -55.5s-155.666 -12.5 -216.999 -12.5v188c50 0 110.667 2.66699 182 8s136.333 15.666 195 30.999
c78 21.333 140.667 48.333 188 81s83 72.667 107 120c-98 8 -178.167 27 -240.5 57s-112.166 66.667 -149.499 110c-36 41.333 -60.833 85.333 -74.5 132s-20.5 89 -20.5 127c0 100 32.5 187.5 97.5 262.5s138.167 112.5 219.5 112.5
c110.667 0 200.834 -57.667 270.501 -173s104.5 -263.333 104.5 -444h149v-188zM298.995 293.999c24 -24.667 59.165 -46.998 105.498 -66.998s107.5 -32.333 183.5 -37c-3.33301 133.333 -22.666 237.666 -57.999 312.999s-79.666 113 -132.999 113
c-46 0 -83.667 -18.833 -113 -56.5s-44 -78.834 -44 -123.501c0 -19.333 3.33301 -41.333 10 -66s23 -50 49 -76zM823.993 971.001h-336v94h74c-16 8.66699 -29.167 22.667 -39.5 42s-15.5 39.333 -15.5 60c0 42.667 15.667 80 47 112s73.666 48 126.999 48
c35.333 0 61.5 -2 78.5 -6s28.833 -7.33301 35.5 -10v-101h-6c-9.33301 4 -25.166 8.83301 -47.499 14.5s-41.833 8.5 -58.5 8.5c-29.333 0 -51.333 -6 -66 -18s-22 -28 -22 -48c0 -30 15.333 -54.5 46 -73.5s67 -28.5 109 -28.5h74v-94z" />
    <glyph glyph-name="uni0677" unicode="&#x677;" horiz-adv-x="854" arabic-form="isolated" 
d="M760 186c0 -124 -30.001 -229.331 -90.001 -315.998s-143 -152 -249 -196c-84.667 -36.667 -171.667 -62.167 -261 -76.5s-182.333 -21.5 -279 -21.5v188c88 0 170.833 5.5 248.5 16.5s145.167 27.5 202.5 49.5c77.333 29.333 139.333 69.666 186 120.999s70 119 70 203
c-9.33301 -6 -30.5 -14.333 -63.5 -25s-63.833 -16 -92.5 -16c-114.667 0 -204 30.5 -268 91.5s-96 136.167 -96 225.5c0 101.333 32.833 189.166 98.5 263.499s138.5 111.5 218.5 111.5c110.667 0 200.834 -57.667 270.501 -173s104.5 -264 104.5 -446zM574.999 340.002
c0 18.667 -3.99902 43.5 -11.999 74.5s-20.333 62.5 -37 94.5c-14.667 28 -33.334 52.833 -56.001 74.5s-47 32.5 -73 32.5c-46 0 -83.667 -18.833 -113 -56.5s-44 -78.834 -44 -123.501c0 -39.333 18.167 -71.666 54.5 -96.999s84.833 -38 145.5 -38
c28.667 0 55.667 4.5 81 13.5s43.333 17.5 54 25.5zM884 971.002h-336v94h74c-16 8.66699 -29.167 22.667 -39.5 42s-15.5 39.333 -15.5 60c0 42.667 15.667 80 47 112s73.666 48 126.999 48c35.333 0 61.5 -2 78.5 -6s28.833 -7.33301 35.5 -10v-101h-6
c-9.33301 4 -25.166 8.83301 -47.499 14.5s-41.833 8.5 -58.5 8.5c-29.333 0 -51.333 -6 -66 -18s-22 -28 -22 -48c0 -30 15.333 -54.5 46 -73.5s67 -28.5 109 -28.5h74v-94zM436 946.002l-126.999 27.999c-60.667 -34.667 -120.834 -61 -180.501 -79s-122.5 -29 -188.5 -33
v88c50 3.33301 97 9.66602 141 18.999s87.667 24 131 44c-34 10.667 -64 29.834 -90 57.501s-39 60.5 -39 98.5c0 46 15.5 83.833 46.5 113.5s72.833 44.5 125.5 44.5c46 0 85.833 -15 119.5 -45s50.5 -69 50.5 -117c0 -22.667 -6 -46.167 -18 -70.5
s-23.667 -41.166 -35 -50.499l64 -12v-86zM288.001 1069c14 12 25.332 25.5 33.999 40.5s13 34.167 13 57.5c0 19.333 -7.83301 35 -23.5 47s-33.167 18 -52.5 18c-23.333 0 -42.666 -5.5 -57.999 -16.5s-23 -27.167 -23 -48.5c0 -22.667 9.5 -42.5 28.5 -59.5
s46.167 -29.833 81.5 -38.5z" />
    <glyph glyph-name="uni0678.fina" unicode="&#x678;" horiz-adv-x="2042" 
d="M2042 0l-7.99609 -0.00292969c-48.667 0 -91.667 7.66699 -129 23s-71.666 36.333 -102.999 63c-32 27.333 -60.333 57.666 -85 90.999s-47.334 66.333 -68.001 99l-63 100.5c-24 38.333 -45.667 68.5 -65 90.5c-22.667 26 -47.167 46.833 -73.5 62.5
s-55.5 23.5 -87.5 23.5c-51.333 0 -90.166 -10.333 -116.499 -31s-39.5 -41.667 -39.5 -63c0 -20 18.167 -45.167 54.5 -75.5l93.5 -77.5c47.333 -39.333 83.666 -76.166 108.999 -110.499s38 -68.166 38 -101.499c0 -136.667 -64.5 -241.167 -193.5 -313.5
s-328.5 -108.5 -598.5 -108.5c-210.667 0 -365.834 35.833 -465.501 107.5s-149.5 184.834 -149.5 339.501c0 52.667 3.16699 104.334 9.5 155.001s10.166 81.667 11.499 93h172v-11c-2 -10.667 -7 -43 -15 -97s-12 -100 -12 -138c0 -92.667 33.667 -159.167 101 -199.5
s184 -60.5 350 -60.5c207.333 0 363.166 18 467.499 54s156.5 93 156.5 171c0 27.333 -16.667 54.833 -50 82.5l-97 77.5c-55.333 41.333 -93.833 78.833 -115.5 112.5s-32.5 67.834 -32.5 102.501c0 68 30.667 131.667 92 191s138 89 230 89c44 0 83.5 -8 118.5 -24
s66.5 -36.667 94.5 -62c26 -23.333 52.333 -53.333 79 -90s49.667 -70.334 69 -101.001l66 -100c26 -38.667 49 -68.667 69 -90c26 -27.333 52.167 -48.5 78.5 -63.5s58.166 -22.5 95.499 -22.5h12v-188zM2034 816.997h-336v94h74c-16 8.66699 -29.167 22.667 -39.5 42
s-15.5 39.333 -15.5 60c0 42.667 15.667 80 47 112s73.666 48 126.999 48c35.333 0 61.5 -2 78.5 -6s28.833 -7.33301 35.5 -10v-101h-6c-9.33301 4 -25.166 8.83301 -47.499 14.5s-41.833 8.5 -58.5 8.5c-29.333 0 -51.333 -6 -66 -18s-22 -28 -22 -48
c0 -30 15.333 -54.5 46 -73.5s67 -28.5 109 -28.5h74v-94z" />
    <glyph glyph-name="uni0679" unicode="&#x679;" horiz-adv-x="1653" arabic-form="isolated" 
d="M1086 199c73.333 15.333 134.335 38.998 183.002 70.998c45.333 30 77.666 64.333 96.999 103s29 81.667 29 129c0 20.667 -3.66699 50.834 -11 90.501l-16 85.5v10h172l13 -88.5c5.33301 -37 8 -73.833 8 -110.5c0 -161.333 -60.5 -285.166 -181.5 -371.499
s-305.833 -129.5 -554.5 -129.5c-245.333 0 -428.833 43.333 -550.5 130s-182.5 210.334 -182.5 371.001c0 36.667 2.66699 73.5 8 110.5l13 88.5h172v-10l-16 -85.5c-7.33301 -39.667 -11 -69.834 -11 -90.501c0 -47.333 9.5 -90.5 28.5 -129.5s51.5 -73.167 97.5 -102.5
c48.667 -32 110 -55.667 184 -71s160.333 -23 259 -23c99.333 0 185.666 7.66699 258.999 23zM1093 980.998c0 -59.333 -29.332 -103.667 -87.999 -133c-44.667 -22 -98 -33 -160 -33h-289v92h82c14 10.667 21 18.667 21 24v500h83v-397
c69.333 75.333 132.666 113 189.999 113c47.333 0 86 -15.667 116 -47s45 -71 45 -119zM1009 978.997c0 21.333 -7.5 39.5 -22.5 54.5s-33.5 22.5 -55.5 22.5c-48 0 -107.667 -49.667 -179 -149h48c139.333 0 209 24 209 72z" />
    <glyph glyph-name="uni067A" unicode="&#x67a;" horiz-adv-x="1653" arabic-form="isolated" 
d="M1086 199c73.333 15.333 134.335 38.998 183.002 70.998c45.333 30 77.666 64.333 96.999 103s29 81.667 29 129c0 20.667 -3.66699 50.834 -11 90.501l-16 85.5v10h172l13 -88.5c5.33301 -37 8 -73.833 8 -110.5c0 -161.333 -60.5 -285.166 -181.5 -371.499
s-305.833 -129.5 -554.5 -129.5c-245.333 0 -428.833 43.333 -550.5 130s-182.5 210.334 -182.5 371.001c0 36.667 2.66699 73.5 8 110.5l13 88.5h172v-10l-16 -85.5c-7.33301 -39.667 -11 -69.834 -11 -90.501c0 -47.333 9.5 -90.5 28.5 -129.5s51.5 -73.167 97.5 -102.5
c48.667 -32 110 -55.667 184 -71s160.333 -23 259 -23c99.333 0 185.666 7.66699 258.999 23zM903.002 1024h-148v148h148v-148zM903.002 814.998h-148v148h148v-148z" />
    <glyph glyph-name="uni067B" unicode="&#x67b;" horiz-adv-x="1653" arabic-form="isolated" 
d="M1086 199c73.333 15.333 134.335 38.998 183.002 70.998c45.333 30 77.666 64.333 96.999 103s29 81.667 29 129c0 20.667 -3.66699 50.834 -11 90.501l-16 85.5v10h172l13 -88.5c5.33301 -37 8 -73.833 8 -110.5c0 -161.333 -60.5 -285.166 -181.5 -371.499
s-305.833 -129.5 -554.5 -129.5c-245.333 0 -428.833 43.333 -550.5 130s-182.5 210.334 -182.5 371.001c0 36.667 2.66699 73.5 8 110.5l13 88.5h172v-10l-16 -85.5c-7.33301 -39.667 -11 -69.834 -11 -90.501c0 -47.333 9.5 -90.5 28.5 -129.5s51.5 -73.167 97.5 -102.5
c48.667 -32 110 -55.667 184 -71s160.333 -23 259 -23c99.333 0 185.666 7.66699 258.999 23zM903.002 -214.002h-148v148h148v-148zM903.002 -423.002h-148v148h148v-148z" />
    <glyph glyph-name="uni067C.init" unicode="&#x67c;" horiz-adv-x="573" 
d="M440 453c0 -142 -33.667 -253 -101 -333s-160 -120 -278 -120h-131v188h136c68 0 119.667 24.333 155 73s53 116.667 53 204v252h166v-264zM291 970h-148v148h148v-148zM559 970h-148v148h148v-148zM377 -82c0 -52.667 -18.668 -97.333 -56.001 -134
s-81.666 -55 -132.999 -55c-52 0 -96.333 18.5 -133 55.5s-55 81.5 -55 133.5c0 51.333 18.5 95.5 55.5 132.5s81.167 55.5 132.5 55.5c52 0 96.5 -18.333 133.5 -55s55.5 -81 55.5 -133zM284.999 -82.999c0 26.667 -9.33105 49.334 -27.998 68.001s-41.667 28 -69 28
c-26.667 0 -49.334 -9.33301 -68.001 -28s-28 -41.334 -28 -68.001c0 -25.333 9.66699 -47.333 29 -66s41.666 -28 66.999 -28c26 0 48.667 9.33301 68 28s29 40.667 29 66z" />
    <glyph glyph-name="uni067C.medi" unicode="&#x67c;" horiz-adv-x="719" 
d="M719 0l-117 -0.000976562c-41.333 0 -86.833 11 -136.5 33s-85.5 52 -107.5 90c-23.333 -39.333 -58.333 -69.666 -105 -90.999s-92 -32 -136 -32h-187v188h142c60 0 108.667 20.667 146 62s56 100 56 176v121h168v-121c0 -72 18.833 -129.667 56.5 -173
s87.167 -65 148.5 -65h72v-188zM291 814.999h-148v148h148v-148zM559 814.999h-148v148h148v-148zM377 -88.001c0 -52.667 -18.668 -97.333 -56.001 -134s-81.666 -55 -132.999 -55c-52 0 -96.333 18.5 -133 55.5s-55 81.5 -55 133.5c0 51.333 18.5 95.5 55.5 132.5
s81.167 55.5 132.5 55.5c52 0 96.5 -18.333 133.5 -55s55.5 -81 55.5 -133zM284.999 -89c0 26.667 -9.33105 49.334 -27.998 68.001s-41.667 28 -69 28c-26.667 0 -49.334 -9.33301 -68.001 -28s-28 -41.334 -28 -68.001c0 -25.333 9.66699 -47.333 29 -66
s41.666 -28 66.999 -28c26 0 48.667 9.33301 68 28s29 40.667 29 66z" />
    <glyph glyph-name="uni067C.fina" unicode="&#x67c;" horiz-adv-x="1919" 
d="M1919 0l-117.002 0.00195312c-41.333 0 -86.666 11 -135.999 33s-85 52 -107 90c-28 -38.667 -68.333 -68.834 -121 -90.501s-115.667 -32.5 -189 -32.5h-424c-245.333 0 -428.833 43.333 -550.5 130s-182.5 210.667 -182.5 372c0 48.667 2.83301 90.667 8.5 126
s9.83398 59.333 12.501 72h172v-10c-2.66699 -10 -7.83398 -35.167 -15.501 -75.5s-11.5 -73.833 -11.5 -100.5c0 -46 9.83301 -89 29.5 -129s51.834 -74.333 96.501 -103c48.667 -32 110 -55.667 184 -71s160.333 -23 259 -23h241h136c93.333 0 161.833 19.667 205.5 59
s65.5 99 65.5 179c0 18 -1.83301 38 -5.5 60s-6.16699 37.333 -7.5 46v15h170c2 -12 4.16699 -33.833 6.5 -65.5s3.5 -52.834 3.5 -63.501c0 -64 17.333 -118.333 52 -163s85.667 -67 153 -67h72v-188zM837.998 815.002h-148v148h148v-148zM1106 815.002h-148v148h148v-148z
M1097 -94.998c0 -52.667 -18.668 -97.333 -56.001 -134s-81.666 -55 -132.999 -55c-52 0 -96.333 18.5 -133 55.5s-55 81.5 -55 133.5c0 51.333 18.5 95.5 55.5 132.5s81.167 55.5 132.5 55.5c52 0 96.5 -18.333 133.5 -55s55.5 -81 55.5 -133zM1005 -95.9971
c0 26.667 -9.33105 49.334 -27.998 68.001s-41.667 28 -69 28c-26.667 0 -49.334 -9.33301 -68.001 -28s-28 -41.334 -28 -68.001c0 -25.333 9.66699 -47.333 29 -66s41.666 -28 66.999 -28c26 0 48.667 9.33301 68 28s29 40.667 29 66z" />
    <glyph glyph-name="uni067D.init" unicode="&#x67d;" horiz-adv-x="573" 
d="M440 453c0 -142 -33.667 -253 -101 -333s-160 -120 -278 -120h-131v188h136c68 0 119.667 24.333 155 73s53 116.667 53 204v252h166v-264zM277 1179h-148v148h148v-148zM573 1179h-148v148h148v-148zM425 970h-148v148h148v-148z" />
    <glyph glyph-name="uni067D.medi" unicode="&#x67d;" horiz-adv-x="719" 
d="M719 0l-117 -0.000976562c-41.333 0 -86.833 11 -136.5 33s-85.5 52 -107.5 90c-23.333 -39.333 -58.333 -69.666 -105 -90.999s-92 -32 -136 -32h-187v188h142c60 0 108.667 20.667 146 62s56 100 56 176v121h168v-121c0 -72 18.833 -129.667 56.5 -173
s87.167 -65 148.5 -65h72v-188zM277 1024h-148v148h148v-148zM573 1024h-148v148h148v-148zM425 814.999h-148v148h148v-148z" />
    <glyph glyph-name="uni067D.fina" unicode="&#x67d;" horiz-adv-x="1919" 
d="M1919 0l-117.002 0.00195312c-41.333 0 -86.666 11 -135.999 33s-85 52 -107 90c-28 -38.667 -68.333 -68.834 -121 -90.501s-115.667 -32.5 -189 -32.5h-424c-245.333 0 -428.833 43.333 -550.5 130s-182.5 210.667 -182.5 372c0 48.667 2.83301 90.667 8.5 126
s9.83398 59.333 12.501 72h172v-10c-2.66699 -10 -7.83398 -35.167 -15.501 -75.5s-11.5 -73.833 -11.5 -100.5c0 -46 9.83301 -89 29.5 -129s51.834 -74.333 96.501 -103c48.667 -32 110 -55.667 184 -71s160.333 -23 259 -23h241h136c93.333 0 161.833 19.667 205.5 59
s65.5 99 65.5 179c0 18 -1.83301 38 -5.5 60s-6.16699 37.333 -7.5 46v15h170c2 -12 4.16699 -33.833 6.5 -65.5s3.5 -52.834 3.5 -63.501c0 -64 17.333 -118.333 52 -163s85.667 -67 153 -67h72v-188zM823.998 1024h-148v148h148v-148zM1120 1024h-148v148h148v-148z
M971.998 815.002h-148v148h148v-148z" />
    <glyph glyph-name="afii57506" unicode="&#x67e;" horiz-adv-x="1653" arabic-form="isolated" 
d="M1086 199c73.333 15.333 134.335 38.998 183.002 70.998c45.333 30 77.666 64.333 96.999 103s29 81.667 29 129c0 20.667 -3.66699 50.834 -11 90.501l-16 85.5v10h172l13 -88.5c5.33301 -37 8 -73.833 8 -110.5c0 -161.333 -60.5 -285.166 -181.5 -371.499
s-305.833 -129.5 -554.5 -129.5c-245.333 0 -428.833 43.333 -550.5 130s-182.5 210.334 -182.5 371.001c0 36.667 2.66699 73.5 8 110.5l13 88.5h172v-10l-16 -85.5c-7.33301 -39.667 -11 -69.834 -11 -90.501c0 -47.333 9.5 -90.5 28.5 -129.5s51.5 -73.167 97.5 -102.5
c48.667 -32 110 -55.667 184 -71s160.333 -23 259 -23c99.333 0 185.666 7.66699 258.999 23zM745.002 -214.002h-148v148h148v-148zM1041 -214.002h-148v148h148v-148zM893.002 -423.002h-148v148h148v-148z" />
    <glyph glyph-name="uni067F" unicode="&#x67f;" horiz-adv-x="1653" arabic-form="isolated" 
d="M1086 199c73.333 15.333 134.335 38.998 183.002 70.998c45.333 30 77.666 64.333 96.999 103s29 81.667 29 129c0 20.667 -3.66699 50.834 -11 90.501l-16 85.5v10h172l13 -88.5c5.33301 -37 8 -73.833 8 -110.5c0 -161.333 -60.5 -285.166 -181.5 -371.499
s-305.833 -129.5 -554.5 -129.5c-245.333 0 -428.833 43.333 -550.5 130s-182.5 210.334 -182.5 371.001c0 36.667 2.66699 73.5 8 110.5l13 88.5h172v-10l-16 -85.5c-7.33301 -39.667 -11 -69.834 -11 -90.501c0 -47.333 9.5 -90.5 28.5 -129.5s51.5 -73.167 97.5 -102.5
c48.667 -32 110 -55.667 184 -71s160.333 -23 259 -23c99.333 0 185.666 7.66699 258.999 23zM1037 1024h-148v148h148v-148zM1037 814.998h-148v148h148v-148zM769.002 1024h-148v148h148v-148zM769.002 814.998h-148v148h148v-148z" />
    <glyph glyph-name="uni0680" unicode="&#x680;" horiz-adv-x="1653" arabic-form="isolated" 
d="M1086 199c73.333 15.333 134.335 38.998 183.002 70.998c45.333 30 77.666 64.333 96.999 103s29 81.667 29 129c0 20.667 -3.66699 50.834 -11 90.501l-16 85.5v10h172l13 -88.5c5.33301 -37 8 -73.833 8 -110.5c0 -161.333 -60.5 -285.166 -181.5 -371.499
s-305.833 -129.5 -554.5 -129.5c-245.333 0 -428.833 43.333 -550.5 130s-182.5 210.334 -182.5 371.001c0 36.667 2.66699 73.5 8 110.5l13 88.5h172v-10l-16 -85.5c-7.33301 -39.667 -11 -69.834 -11 -90.501c0 -47.333 9.5 -90.5 28.5 -129.5s51.5 -73.167 97.5 -102.5
c48.667 -32 110 -55.667 184 -71s160.333 -23 259 -23c99.333 0 185.666 7.66699 258.999 23zM1037 -214.002h-148v148h148v-148zM1037 -423.002h-148v148h148v-148zM769.002 -214.002h-148v148h148v-148zM769.002 -423.002h-148v148h148v-148z" />
    <glyph glyph-name="uni0681.init" unicode="&#x681;" horiz-adv-x="1350" 
d="M1280 461c-164.667 -98.667 -375.836 -200.167 -633.503 -304.5s-445.167 -156.5 -562.5 -156.5h-154v188h158c92.667 0 222.334 28.5 389.001 85.5s309.334 116.167 428.001 177.5c-58 40 -149.667 79.667 -275 119s-254.666 59 -387.999 59h-117v186h127
c122.667 0 257 -23.333 403 -70s287.333 -112.667 424 -198l201 102v-188zM723.998 989h-336v94h74c-16 8.66699 -29.167 22.667 -39.5 42s-15.5 39.333 -15.5 60c0 42.667 15.667 80 47 112s73.666 48 126.999 48c35.333 0 61.5 -2 78.5 -6s28.833 -7.33301 35.5 -10v-101
h-6c-9.33301 4 -25.166 8.83301 -47.499 14.5s-41.833 8.5 -58.5 8.5c-29.333 0 -51.333 -6 -66 -18s-22 -28 -22 -48c0 -30 15.333 -54.5 46 -73.5s67 -28.5 109 -28.5h74v-94z" />
    <glyph glyph-name="uni0681.medi" unicode="&#x681;" horiz-adv-x="1393" 
d="M791 217c-146.667 -64.667 -283.504 -117.001 -410.504 -157.001s-225.833 -60 -296.5 -60h-154v188h158c92.667 0 222.334 28.5 389.001 85.5s309.334 116.167 428.001 177.5c-58 40 -149.667 79.667 -275 119s-254.666 59 -387.999 59h-117v186h127
c122.667 0 257 -23.333 403 -70s287.333 -112.667 424 -198l201 102v-188c-45.333 -26.667 -96.666 -55.167 -153.999 -85.5s-117.333 -59.833 -180 -88.5c15.333 -29.333 37.666 -53.166 66.999 -71.499s70.666 -27.5 123.999 -27.5h256v-188h-252
c-93.333 0 -170.166 17.5 -230.499 52.5s-100.166 89.833 -119.499 164.5zM723.996 988.999h-336v94h74c-16 8.66699 -29.167 22.667 -39.5 42s-15.5 39.333 -15.5 60c0 42.667 15.667 80 47 112s73.666 48 126.999 48c35.333 0 61.5 -2 78.5 -6s28.833 -7.33301 35.5 -10
v-101h-6c-9.33301 4 -25.166 8.83301 -47.499 14.5s-41.833 8.5 -58.5 8.5c-29.333 0 -51.333 -6 -66 -18s-22 -28 -22 -48c0 -30 15.333 -54.5 46 -73.5s67 -28.5 109 -28.5h74v-94z" />
    <glyph glyph-name="uni0681.fina" unicode="&#x681;" horiz-adv-x="1434" 
d="M1434 0l-98.998 -0.00390625c-108.667 0 -186.334 24.333 -233.001 73s-70 129.334 -70 242.001v246c-121.333 -2 -231 -12.5 -329 -31.5s-180.333 -46.167 -247 -81.5c-68 -36 -120 -82 -156 -138s-54 -122.333 -54 -199c0 -105.333 38.167 -190.166 114.5 -254.499
s174.5 -96.5 294.5 -96.5c90.667 0 172.334 10.5 245.001 31.5s136 48.833 190 83.5h10v-201c-58.667 -30 -120.334 -53.833 -185.001 -71.5s-150.667 -26.5 -258 -26.5c-81.333 0 -157 11.833 -227 35.5s-131 58.5 -183 104.5s-92.833 102.333 -122.5 169
s-44.5 142.667 -44.5 228c0 78.667 18.667 153 56 223s97 132.667 179 188c67.333 45.333 143.666 80.166 228.999 104.499s169.666 38.833 252.999 43.5c-81.333 38 -160.666 64.167 -237.999 78.5s-170 21.5 -278 21.5h-76v186h88c108 0 230.667 -21.5 368 -64.5
s266 -101.833 386 -176.5h170v-156h-56v-155c0 -37.333 1.83301 -67.666 5.5 -90.999s12.167 -45.666 25.5 -66.999c12.667 -19.333 29.5 -34.166 50.5 -44.499s50.5 -15.5 88.5 -15.5h103v-188zM857.002 1120h-336v94h74c-16 8.66699 -29.167 22.667 -39.5 42
s-15.5 39.333 -15.5 60c0 42.667 15.667 80 47 112s73.666 48 126.999 48c35.333 0 61.5 -2 78.5 -6s28.833 -7.33301 35.5 -10v-101h-6c-9.33301 4 -25.166 8.83301 -47.499 14.5s-41.833 8.5 -58.5 8.5c-29.333 0 -51.333 -6 -66 -18s-22 -28 -22 -48
c0 -30 15.333 -54.5 46 -73.5s67 -28.5 109 -28.5h74v-94z" />
    <glyph glyph-name="uni0682.init" unicode="&#x682;" horiz-adv-x="1350" 
d="M1280 461c-164.667 -98.667 -375.836 -200.167 -633.503 -304.5s-445.167 -156.5 -562.5 -156.5h-154v188h158c92.667 0 222.334 28.5 389.001 85.5s309.334 116.167 428.001 177.5c-58 40 -149.667 79.667 -275 119s-254.666 59 -387.999 59h-117v186h127
c122.667 0 257 -23.333 403 -70s287.333 -112.667 424 -198l201 102v-188zM655.998 1198h-148v148h148v-148zM655.998 989h-148v148h148v-148z" />
    <glyph glyph-name="uni0682.medi" unicode="&#x682;" horiz-adv-x="1393" 
d="M791 217c-146.667 -64.667 -283.504 -117.001 -410.504 -157.001s-225.833 -60 -296.5 -60h-154v188h158c92.667 0 222.334 28.5 389.001 85.5s309.334 116.167 428.001 177.5c-58 40 -149.667 79.667 -275 119s-254.666 59 -387.999 59h-117v186h127
c122.667 0 257 -23.333 403 -70s287.333 -112.667 424 -198l201 102v-188c-45.333 -26.667 -96.666 -55.167 -153.999 -85.5s-117.333 -59.833 -180 -88.5c15.333 -29.333 37.666 -53.166 66.999 -71.499s70.666 -27.5 123.999 -27.5h256v-188h-252
c-93.333 0 -170.166 17.5 -230.499 52.5s-100.166 89.833 -119.499 164.5zM655.996 1198h-148v148h148v-148zM655.996 988.999h-148v148h148v-148z" />
    <glyph glyph-name="uni0682.fina" unicode="&#x682;" horiz-adv-x="1434" 
d="M1434 0l-98.998 -0.00390625c-108.667 0 -186.334 24.333 -233.001 73s-70 129.334 -70 242.001v246c-121.333 -2 -231 -12.5 -329 -31.5s-180.333 -46.167 -247 -81.5c-68 -36 -120 -82 -156 -138s-54 -122.333 -54 -199c0 -105.333 38.167 -190.166 114.5 -254.499
s174.5 -96.5 294.5 -96.5c90.667 0 172.334 10.5 245.001 31.5s136 48.833 190 83.5h10v-201c-58.667 -30 -120.334 -53.833 -185.001 -71.5s-150.667 -26.5 -258 -26.5c-81.333 0 -157 11.833 -227 35.5s-131 58.5 -183 104.5s-92.833 102.333 -122.5 169
s-44.5 142.667 -44.5 228c0 78.667 18.667 153 56 223s97 132.667 179 188c67.333 45.333 143.666 80.166 228.999 104.499s169.666 38.833 252.999 43.5c-81.333 38 -160.666 64.167 -237.999 78.5s-170 21.5 -278 21.5h-76v186h88c108 0 230.667 -21.5 368 -64.5
s266 -101.833 386 -176.5h170v-156h-56v-155c0 -37.333 1.83301 -67.666 5.5 -90.999s12.167 -45.666 25.5 -66.999c12.667 -19.333 29.5 -34.166 50.5 -44.499s50.5 -15.5 88.5 -15.5h103v-188zM918.002 1329h-148v148h148v-148zM918.002 1120h-148v148h148v-148z" />
    <glyph glyph-name="uni0683" unicode="&#x683;" horiz-adv-x="1247" arabic-form="isolated" 
d="M1120 561l-30 -0.00195312c-136 0 -254.167 -8.16699 -354.5 -24.5s-188.5 -43.166 -264.5 -80.499c-71.333 -34.667 -126.666 -81.167 -165.999 -139.5s-59 -126.833 -59 -205.5c0 -105.333 38.167 -190.166 114.5 -254.499s174.5 -96.5 294.5 -96.5
c90.667 0 172.334 10.5 245.001 31.5s136 48.833 190 83.5h10v-201c-58.667 -30 -120.334 -53.833 -185.001 -71.5s-150.667 -26.5 -258 -26.5c-170 0 -308.667 48.833 -416 146.5s-161 227.834 -161 390.501c0 77.333 18.667 151.5 56 222.5s97 133.833 179 188.5
c67.333 45.333 143.666 80.166 228.999 104.499s169.666 38.833 252.999 43.5c-81.333 38 -160.666 64.167 -237.999 78.5s-170 21.5 -278 21.5h-76v186h88c108 0 230.667 -21.5 368 -64.5s266 -101.833 386 -176.5h73v-156zM624 65.998h-148v148h148v-148zM892 65.998h-148
v148h148v-148z" />
    <glyph glyph-name="uni0684" unicode="&#x684;" horiz-adv-x="1247" arabic-form="isolated" 
d="M1120 561l-30 -0.00195312c-136 0 -254.167 -8.16699 -354.5 -24.5s-188.5 -43.166 -264.5 -80.499c-71.333 -34.667 -126.666 -81.167 -165.999 -139.5s-59 -126.833 -59 -205.5c0 -105.333 38.167 -190.166 114.5 -254.499s174.5 -96.5 294.5 -96.5
c90.667 0 172.334 10.5 245.001 31.5s136 48.833 190 83.5h10v-201c-58.667 -30 -120.334 -53.833 -185.001 -71.5s-150.667 -26.5 -258 -26.5c-170 0 -308.667 48.833 -416 146.5s-161 227.834 -161 390.501c0 77.333 18.667 151.5 56 222.5s97 133.833 179 188.5
c67.333 45.333 143.666 80.166 228.999 104.499s169.666 38.833 252.999 43.5c-81.333 38 -160.666 64.167 -237.999 78.5s-170 21.5 -278 21.5h-76v186h88c108 0 230.667 -21.5 368 -64.5s266 -101.833 386 -176.5h73v-156zM758 188.998h-148v148h148v-148zM758 -20.002
h-148v148h148v-148z" />
    <glyph glyph-name="uni0685.init" unicode="&#x685;" horiz-adv-x="1350" 
d="M1280 461c-164.667 -98.667 -375.836 -200.167 -633.503 -304.5s-445.167 -156.5 -562.5 -156.5h-154v188h158c92.667 0 222.334 28.5 389.001 85.5s309.334 116.167 428.001 177.5c-58 40 -149.667 79.667 -275 119s-254.666 59 -387.999 59h-117v186h127
c122.667 0 257 -23.333 403 -70s287.333 -112.667 424 -198l201 102v-188zM507.998 989h-148v148h148v-148zM803.998 989h-148v148h148v-148zM655.998 1198h-148v148h148v-148z" />
    <glyph glyph-name="uni0685.medi" unicode="&#x685;" horiz-adv-x="1393" 
d="M791 217c-146.667 -64.667 -283.504 -117.001 -410.504 -157.001s-225.833 -60 -296.5 -60h-154v188h158c92.667 0 222.334 28.5 389.001 85.5s309.334 116.167 428.001 177.5c-58 40 -149.667 79.667 -275 119s-254.666 59 -387.999 59h-117v186h127
c122.667 0 257 -23.333 403 -70s287.333 -112.667 424 -198l201 102v-188c-45.333 -26.667 -96.666 -55.167 -153.999 -85.5s-117.333 -59.833 -180 -88.5c15.333 -29.333 37.666 -53.166 66.999 -71.499s70.666 -27.5 123.999 -27.5h256v-188h-252
c-93.333 0 -170.166 17.5 -230.499 52.5s-100.166 89.833 -119.499 164.5zM507.996 988.999h-148v148h148v-148zM803.996 988.999h-148v148h148v-148zM655.996 1198h-148v148h148v-148z" />
    <glyph glyph-name="uni0685.fina" unicode="&#x685;" horiz-adv-x="1434" 
d="M1434 0l-98.998 -0.00390625c-108.667 0 -186.334 24.333 -233.001 73s-70 129.334 -70 242.001v246c-121.333 -2 -231 -12.5 -329 -31.5s-180.333 -46.167 -247 -81.5c-68 -36 -120 -82 -156 -138s-54 -122.333 -54 -199c0 -105.333 38.167 -190.166 114.5 -254.499
s174.5 -96.5 294.5 -96.5c90.667 0 172.334 10.5 245.001 31.5s136 48.833 190 83.5h10v-201c-58.667 -30 -120.334 -53.833 -185.001 -71.5s-150.667 -26.5 -258 -26.5c-81.333 0 -157 11.833 -227 35.5s-131 58.5 -183 104.5s-92.833 102.333 -122.5 169
s-44.5 142.667 -44.5 228c0 78.667 18.667 153 56 223s97 132.667 179 188c67.333 45.333 143.666 80.166 228.999 104.499s169.666 38.833 252.999 43.5c-81.333 38 -160.666 64.167 -237.999 78.5s-170 21.5 -278 21.5h-76v186h88c108 0 230.667 -21.5 368 -64.5
s266 -101.833 386 -176.5h170v-156h-56v-155c0 -37.333 1.83301 -67.666 5.5 -90.999s12.167 -45.666 25.5 -66.999c12.667 -19.333 29.5 -34.166 50.5 -44.499s50.5 -15.5 88.5 -15.5h103v-188zM770.002 1120h-148v148h148v-148zM1066 1120h-148v148h148v-148z
M918.002 1329h-148v148h148v-148z" />
    <glyph glyph-name="afii57507" unicode="&#x686;" horiz-adv-x="1247" arabic-form="isolated" 
d="M1120 561l-30 -0.00195312c-136 0 -254.167 -8.16699 -354.5 -24.5s-188.5 -43.166 -264.5 -80.499c-71.333 -34.667 -126.666 -81.167 -165.999 -139.5s-59 -126.833 -59 -205.5c0 -105.333 38.167 -190.166 114.5 -254.499s174.5 -96.5 294.5 -96.5
c90.667 0 172.334 10.5 245.001 31.5s136 48.833 190 83.5h10v-201c-58.667 -30 -120.334 -53.833 -185.001 -71.5s-150.667 -26.5 -258 -26.5c-170 0 -308.667 48.833 -416 146.5s-161 227.834 -161 390.501c0 77.333 18.667 151.5 56 222.5s97 133.833 179 188.5
c67.333 45.333 143.666 80.166 228.999 104.499s169.666 38.833 252.999 43.5c-81.333 38 -160.666 64.167 -237.999 78.5s-170 21.5 -278 21.5h-76v186h88c108 0 230.667 -21.5 368 -64.5s266 -101.833 386 -176.5h73v-156zM635 126.998h-148v148h148v-148zM931 126.998
h-148v148h148v-148zM783 -82.002h-148v148h148v-148z" />
    <glyph glyph-name="uni0687" unicode="&#x687;" horiz-adv-x="1247" arabic-form="isolated" 
d="M1120 561l-30 -0.00195312c-136 0 -254.167 -8.16699 -354.5 -24.5s-188.5 -43.166 -264.5 -80.499c-71.333 -34.667 -126.666 -81.167 -165.999 -139.5s-59 -126.833 -59 -205.5c0 -105.333 38.167 -190.166 114.5 -254.499s174.5 -96.5 294.5 -96.5
c90.667 0 172.334 10.5 245.001 31.5s136 48.833 190 83.5h10v-201c-58.667 -30 -120.334 -53.833 -185.001 -71.5s-150.667 -26.5 -258 -26.5c-170 0 -308.667 48.833 -416 146.5s-161 227.834 -161 390.501c0 77.333 18.667 151.5 56 222.5s97 133.833 179 188.5
c67.333 45.333 143.666 80.166 228.999 104.499s169.666 38.833 252.999 43.5c-81.333 38 -160.666 64.167 -237.999 78.5s-170 21.5 -278 21.5h-76v186h88c108 0 230.667 -21.5 368 -64.5s266 -101.833 386 -176.5h73v-156zM892 188.998h-148v148h148v-148zM892 -20.002
h-148v148h148v-148zM624 188.998h-148v148h148v-148zM624 -20.002h-148v148h148v-148z" />
    <glyph glyph-name="uni0688" unicode="&#x688;" horiz-adv-x="958" arabic-form="isolated" 
d="M645 665c66.667 -61.333 118.832 -120.5 156.499 -177.5s56.5 -111.5 56.5 -163.5c0 -38.667 -7.66699 -78.334 -23 -119.001s-38 -75.334 -68 -104.001c-34.667 -32.667 -76.667 -57.667 -126 -75s-106 -26 -170 -26h-379v188h377c70 0 124.667 12.167 164 36.5
s59 56.833 59 97.5c0 28 -12.667 59.167 -38 93.5s-58.333 69.5 -99 105.5c-40.667 36.667 -84.667 72.334 -132 107.001s-101.666 72.334 -162.999 113.001v215h10l184.5 -136c77.667 -58 141.167 -109.667 190.5 -155zM720.998 1281
c0 -59.333 -29.332 -103.667 -87.999 -133c-44.667 -22 -98 -33 -160 -33h-289v92h82c14 10.667 21 18.667 21 24v500h83v-397c69.333 75.333 132.666 113 189.999 113c47.333 0 86 -15.667 116 -47s45 -71 45 -119zM636.999 1279c0 21.333 -7.5 39.5 -22.5 54.5
s-33.5 22.5 -55.5 22.5c-48 0 -107.667 -49.667 -179 -149h48c139.333 0 209 24 209 72z" />
    <glyph glyph-name="uni0689.fina" unicode="&#x689;" horiz-adv-x="1118" 
d="M1118 0l-54.998 -0.000976562c-66.667 0 -125.167 12.5 -175.5 37.5s-90.833 60.167 -121.5 105.5c-42.667 -47.333 -88.834 -83 -138.501 -107s-101.834 -36 -156.501 -36h-268h-133v188h393c40 0 75.333 5.33301 106 16s54.667 25.334 72 44.001
c16 18 27.167 36.667 33.5 56s9.5 39.666 9.5 60.999c0 6.66699 -1.5 17.334 -4.5 32.001s-6.83301 31 -11.5 49l-156 527h195l135 -477c10.667 -38 23 -79 37 -123s27 -77 39 -99c15.333 -26.667 34 -47.667 56 -63s50.333 -23 85 -23h59v-188zM577.002 -96.001
c0 -52.667 -18.668 -97.333 -56.001 -134s-81.666 -55 -132.999 -55c-52 0 -96.333 18.5 -133 55.5s-55 81.5 -55 133.5c0 51.333 18.5 95.5 55.5 132.5s81.167 55.5 132.5 55.5c52 0 96.5 -18.333 133.5 -55s55.5 -81 55.5 -133zM485.001 -97
c0 26.667 -9.33105 49.334 -27.998 68.001s-41.667 28 -69 28c-26.667 0 -49.334 -9.33301 -68.001 -28s-28 -41.334 -28 -68.001c0 -25.333 9.66699 -47.333 29 -66s41.666 -28 66.999 -28c26 0 48.667 9.33301 68 28s29 40.667 29 66z" />
    <glyph glyph-name="uni068A.fina" unicode="&#x68a;" horiz-adv-x="1118" 
d="M1118 0l-54.998 -0.000976562c-66.667 0 -125.167 12.5 -175.5 37.5s-90.833 60.167 -121.5 105.5c-42.667 -47.333 -88.834 -83 -138.501 -107s-101.834 -36 -156.501 -36h-268h-133v188h393c40 0 75.333 5.33301 106 16s54.667 25.334 72 44.001
c16 18 27.167 36.667 33.5 56s9.5 39.666 9.5 60.999c0 6.66699 -1.5 17.334 -4.5 32.001s-6.83301 31 -11.5 49l-156 527h195l135 -477c10.667 -38 23 -79 37 -123s27 -77 39 -99c15.333 -26.667 34 -47.667 56 -63s50.333 -23 85 -23h59v-188zM385.002 -319.001h-148v148
h148v-148z" />
    <glyph glyph-name="uni068b.fina" unicode="&#x68b;" horiz-adv-x="1118" 
d="M1118 0l-54.998 -0.000976562c-66.667 0 -125.167 12.5 -175.5 37.5s-90.833 60.167 -121.5 105.5c-42.667 -47.333 -88.834 -83 -138.501 -107s-101.834 -36 -156.501 -36h-268h-133v188h393c40 0 75.333 5.33301 106 16s54.667 25.334 72 44.001
c16 18 27.167 36.667 33.5 56s9.5 39.666 9.5 60.999c0 6.66699 -1.5 17.334 -4.5 32.001s-6.83301 31 -11.5 49l-156 527h195l135 -477c10.667 -38 23 -79 37 -123s27 -77 39 -99c15.333 -26.667 34 -47.667 56 -63s50.333 -23 85 -23h59v-188zM861.002 1281
c0 -59.333 -29.332 -103.667 -87.999 -133c-44.667 -22 -98 -33 -160 -33h-289v92h82c14 10.667 21 18.667 21 24v500h83v-397c69.333 75.333 132.666 113 189.999 113c47.333 0 86 -15.667 116 -47s45 -71 45 -119zM777.003 1279c0 21.333 -7.5 39.5 -22.5 54.5
s-33.5 22.5 -55.5 22.5c-48 0 -107.667 -49.667 -179 -149h48c139.333 0 209 24 209 72zM385.003 -319.002h-148v148h148v-148z" />
    <glyph glyph-name="uni068c" unicode="&#x68c;" horiz-adv-x="958" arabic-form="isolated" 
d="M645 665c66.667 -61.333 118.832 -120.5 156.499 -177.5s56.5 -111.5 56.5 -163.5c0 -38.667 -7.66699 -78.334 -23 -119.001s-38 -75.334 -68 -104.001c-34.667 -32.667 -76.667 -57.667 -126 -75s-106 -26 -170 -26h-379v188h377c70 0 124.667 12.167 164 36.5
s59 56.833 59 97.5c0 28 -12.667 59.167 -38 93.5s-58.333 69.5 -99 105.5c-40.667 36.667 -84.667 72.334 -132 107.001s-101.666 72.334 -162.999 113.001v215h10l184.5 -136c77.667 -58 141.167 -109.667 190.5 -155zM275.998 1178h-148v148h148v-148zM543.998 1178h-148
v148h148v-148z" />
    <glyph glyph-name="uni068d" unicode="&#x68d;" horiz-adv-x="958" arabic-form="isolated" 
d="M645 665c66.667 -61.333 118.832 -120.5 156.499 -177.5s56.5 -111.5 56.5 -163.5c0 -38.667 -7.66699 -78.334 -23 -119.001s-38 -75.334 -68 -104.001c-34.667 -32.667 -76.667 -57.667 -126 -75s-106 -26 -170 -26h-379v188h377c70 0 124.667 12.167 164 36.5
s59 56.833 59 97.5c0 28 -12.667 59.167 -38 93.5s-58.333 69.5 -99 105.5c-40.667 36.667 -84.667 72.334 -132 107.001s-101.666 72.334 -162.999 113.001v215h10l184.5 -136c77.667 -58 141.167 -109.667 190.5 -155zM250.998 -319h-148v148h148v-148zM518.998 -319h-148
v148h148v-148z" />
    <glyph glyph-name="uni068e" unicode="&#x68e;" horiz-adv-x="958" arabic-form="isolated" 
d="M645 665c66.667 -61.333 118.832 -120.5 156.499 -177.5s56.5 -111.5 56.5 -163.5c0 -38.667 -7.66699 -78.334 -23 -119.001s-38 -75.334 -68 -104.001c-34.667 -32.667 -76.667 -57.667 -126 -75s-106 -26 -170 -26h-379v188h377c70 0 124.667 12.167 164 36.5
s59 56.833 59 97.5c0 28 -12.667 59.167 -38 93.5s-58.333 69.5 -99 105.5c-40.667 36.667 -84.667 72.334 -132 107.001s-101.666 72.334 -162.999 113.001v215h10l184.5 -136c77.667 -58 141.167 -109.667 190.5 -155zM261.998 1178h-148v148h148v-148zM557.998 1178h-148
v148h148v-148zM409.998 1387h-148v148h148v-148z" />
    <glyph glyph-name="uni068F.fina" unicode="&#x68f;" horiz-adv-x="1118" 
d="M1118 0l-54.998 -0.000976562c-66.667 0 -125.167 12.5 -175.5 37.5s-90.833 60.167 -121.5 105.5c-42.667 -47.333 -88.834 -83 -138.501 -107s-101.834 -36 -156.501 -36h-268h-133v188h393c40 0 75.333 5.33301 106 16s54.667 25.334 72 44.001
c16 18 27.167 36.667 33.5 56s9.5 39.666 9.5 60.999c0 6.66699 -1.5 17.334 -4.5 32.001s-6.83301 31 -11.5 49l-156 527h195l135 -477c10.667 -38 23 -79 37 -123s27 -77 39 -99c15.333 -26.667 34 -47.667 56 -63s50.333 -23 85 -23h59v-188zM494.002 1387h-148v148h148
v-148zM790.002 1387h-148v148h148v-148zM642.002 1178h-148v148h148v-148z" />
    <glyph glyph-name="uni0690.fina" unicode="&#x690;" horiz-adv-x="1118" 
d="M1118 0l-54.998 -0.000976562c-66.667 0 -125.167 12.5 -175.5 37.5s-90.833 60.167 -121.5 105.5c-42.667 -47.333 -88.834 -83 -138.501 -107s-101.834 -36 -156.501 -36h-268h-133v188h393c40 0 75.333 5.33301 106 16s54.667 25.334 72 44.001
c16 18 27.167 36.667 33.5 56s9.5 39.666 9.5 60.999c0 6.66699 -1.5 17.334 -4.5 32.001s-6.83301 31 -11.5 49l-156 527h195l135 -477c10.667 -38 23 -79 37 -123s27 -77 39 -99c15.333 -26.667 34 -47.667 56 -63s50.333 -23 85 -23h59v-188zM776.002 1415h-148v148h148
v-148zM776.002 1206h-148v148h148v-148zM508.002 1415h-148v148h148v-148zM508.002 1206h-148v148h148v-148z" />
    <glyph glyph-name="uni0691" unicode="&#x691;" horiz-adv-x="741" arabic-form="isolated" 
d="M659 186c0 -110.667 -25.1689 -207.498 -75.502 -290.498s-125.833 -151.5 -226.5 -205.5c-80 -42.667 -162.667 -72.334 -248 -89.001s-158 -25 -218 -25v188c42.667 0 100.334 5.83301 173.001 17.5s137.334 30.834 194.001 57.501
c76.667 35.333 134 79.166 172 131.499s57 113.5 57 183.5c0 57.333 -11.167 115.666 -33.5 174.999s-52.833 117.666 -91.5 174.999v12h193c26 -47.333 49.833 -100.666 71.5 -159.999s32.5 -116 32.5 -170zM740.998 981.002c0 -59.333 -29.332 -103.667 -87.999 -133
c-44.667 -22 -98 -33 -160 -33h-289v92h82c14 10.667 21 18.667 21 24v500h83v-397c69.333 75.333 132.666 113 189.999 113c47.333 0 86 -15.667 116 -47s45 -71 45 -119zM656.999 979.001c0 21.333 -7.5 39.5 -22.5 54.5s-33.5 22.5 -55.5 22.5
c-48 0 -107.667 -49.667 -179 -149h48c139.333 0 209 24 209 72z" />
    <glyph glyph-name="uni0692.fina" unicode="&#x692;" horiz-adv-x="854" 
d="M854 0h-76.0029c-20.667 0 -43.667 3.16699 -69 9.5s-48 14.833 -68 25.5c-24.667 -96 -68.167 -173.833 -130.5 -233.5s-131.5 -106.167 -207.5 -139.5c-69.333 -30 -140 -51.833 -212 -65.5s-138.667 -20.5 -200 -20.5v188c42.667 0 100.334 5.83301 173.001 17.5
s137.334 30.834 194.001 57.501c76 35.333 133.167 78.5 171.5 129.5s57.5 112.833 57.5 185.5c0 39.333 -5.33301 78.5 -16 117.5s-22.667 73.167 -36 102.5s-26.666 55.166 -39.999 77.499s-24.333 39.833 -33 52.5v12h193c4 -7.33301 14 -29 30 -65l42 -97
c25.333 -58.667 54 -101 86 -127s68.667 -39 110 -39h31v-188zM560.997 1101l-137 -286h-98l-137 286h107l79 -194l79 194h107z" />
    <glyph glyph-name="uni0693.fina" unicode="&#x693;" horiz-adv-x="854" 
d="M854 0h-76.0029c-20.667 0 -43.667 3.16699 -69 9.5s-48 14.833 -68 25.5c-24.667 -96 -68.167 -173.833 -130.5 -233.5s-131.5 -106.167 -207.5 -139.5c-69.333 -30 -140 -51.833 -212 -65.5s-138.667 -20.5 -200 -20.5v188c42.667 0 100.334 5.83301 173.001 17.5
s137.334 30.834 194.001 57.501c76 35.333 133.167 78.5 171.5 129.5s57.5 112.833 57.5 185.5c0 39.333 -5.33301 78.5 -16 117.5s-22.667 73.167 -36 102.5s-26.666 55.166 -39.999 77.499s-24.333 39.833 -33 52.5v12h193c4 -7.33301 14 -29 30 -65l42 -97
c25.333 -58.667 54 -101 86 -127s68.667 -39 110 -39h31v-188zM796.997 -235c0 -52.667 -18.668 -97.333 -56.001 -134s-81.666 -55 -132.999 -55c-52 0 -96.333 18.5 -133 55.5s-55 81.5 -55 133.5c0 51.333 18.5 95.5 55.5 132.5s81.167 55.5 132.5 55.5
c52 0 96.5 -18.333 133.5 -55s55.5 -81 55.5 -133zM704.996 -235.999c0 26.667 -9.33105 49.334 -27.998 68.001s-41.667 28 -69 28c-26.667 0 -49.334 -9.33301 -68.001 -28s-28 -41.334 -28 -68.001c0 -25.333 9.66699 -47.333 29 -66s41.666 -28 66.999 -28
c26 0 48.667 9.33301 68 28s29 40.667 29 66z" />
    <glyph glyph-name="uni0694.fina" unicode="&#x694;" horiz-adv-x="854" 
d="M854 0h-76.0029c-20.667 0 -43.667 3.16699 -69 9.5s-48 14.833 -68 25.5c-24.667 -96 -68.167 -173.833 -130.5 -233.5s-131.5 -106.167 -207.5 -139.5c-69.333 -30 -140 -51.833 -212 -65.5s-138.667 -20.5 -200 -20.5v188c42.667 0 100.334 5.83301 173.001 17.5
s137.334 30.834 194.001 57.501c76 35.333 133.167 78.5 171.5 129.5s57.5 112.833 57.5 185.5c0 39.333 -5.33301 78.5 -16 117.5s-22.667 73.167 -36 102.5s-26.666 55.166 -39.999 77.499s-24.333 39.833 -33 52.5v12h193c4 -7.33301 14 -29 30 -65l42 -97
c25.333 -58.667 54 -101 86 -127s68.667 -39 110 -39h31v-188zM724.997 -360h-148v148h148v-148z" />
    <glyph glyph-name="uni0695.fina" unicode="&#x695;" horiz-adv-x="854" 
d="M854 0h-76.0029c-20.667 0 -43.667 3.16699 -69 9.5s-48 14.833 -68 25.5c-24.667 -96 -68.167 -173.833 -130.5 -233.5s-131.5 -106.167 -207.5 -139.5c-69.333 -30 -140 -51.833 -212 -65.5s-138.667 -20.5 -200 -20.5v188c42.667 0 100.334 5.83301 173.001 17.5
s137.334 30.834 194.001 57.501c76 35.333 133.167 78.5 171.5 129.5s57.5 112.833 57.5 185.5c0 39.333 -5.33301 78.5 -16 117.5s-22.667 73.167 -36 102.5s-26.666 55.166 -39.999 77.499s-24.333 39.833 -33 52.5v12h193c4 -7.33301 14 -29 30 -65l42 -97
c25.333 -58.667 54 -101 86 -127s68.667 -39 110 -39h31v-188zM940.997 -138l-137 -286h-98l-137 286h107l79 -194l79 194h107z" />
    <glyph glyph-name="uni0696.fina" unicode="&#x696;" horiz-adv-x="854" 
d="M854 0h-76.0029c-20.667 0 -43.667 3.16699 -69 9.5s-48 14.833 -68 25.5c-24.667 -96 -68.167 -173.833 -130.5 -233.5s-131.5 -106.167 -207.5 -139.5c-69.333 -30 -140 -51.833 -212 -65.5s-138.667 -20.5 -200 -20.5v188c42.667 0 100.334 5.83301 173.001 17.5
s137.334 30.834 194.001 57.501c76 35.333 133.167 78.5 171.5 129.5s57.5 112.833 57.5 185.5c0 39.333 -5.33301 78.5 -16 117.5s-22.667 73.167 -36 102.5s-26.666 55.166 -39.999 77.499s-24.333 39.833 -33 52.5v12h193c4 -7.33301 14 -29 30 -65l42 -97
c25.333 -58.667 54 -101 86 -127s68.667 -39 110 -39h31v-188zM724.997 -360h-148v148h148v-148zM344.997 0h-148v148h148v-148z" />
    <glyph glyph-name="uni0697.fina" unicode="&#x697;" horiz-adv-x="854" 
d="M854 0h-76.0029c-20.667 0 -43.667 3.16699 -69 9.5s-48 14.833 -68 25.5c-24.667 -96 -68.167 -173.833 -130.5 -233.5s-131.5 -106.167 -207.5 -139.5c-69.333 -30 -140 -51.833 -212 -65.5s-138.667 -20.5 -200 -20.5v188c42.667 0 100.334 5.83301 173.001 17.5
s137.334 30.834 194.001 57.501c76 35.333 133.167 78.5 171.5 129.5s57.5 112.833 57.5 185.5c0 39.333 -5.33301 78.5 -16 117.5s-22.667 73.167 -36 102.5s-26.666 55.166 -39.999 77.499s-24.333 39.833 -33 52.5v12h193c4 -7.33301 14 -29 30 -65l42 -97
c25.333 -58.667 54 -101 86 -127s68.667 -39 110 -39h31v-188zM359.997 752h-148v148h148v-148zM627.997 752h-148v148h148v-148z" />
    <glyph glyph-name="afii57508" unicode="&#x698;" horiz-adv-x="741" arabic-form="isolated" 
d="M659 186c0 -110.667 -25.1689 -207.498 -75.502 -290.498s-125.833 -151.5 -226.5 -205.5c-80 -42.667 -162.667 -72.334 -248 -89.001s-158 -25 -218 -25v188c42.667 0 100.334 5.83301 173.001 17.5s137.334 30.834 194.001 57.501
c76.667 35.333 134 79.166 172 131.499s57 113.5 57 183.5c0 57.333 -11.167 115.666 -33.5 174.999s-52.833 117.666 -91.5 174.999v12h193c26 -47.333 49.833 -100.666 71.5 -159.999s32.5 -116 32.5 -170zM344.998 762.002h-148v148h148v-148zM640.998 762.002h-148v148
h148v-148zM492.998 971.002h-148v148h148v-148z" />
    <glyph glyph-name="uni0699.fina" unicode="&#x699;" horiz-adv-x="854" 
d="M854 0h-76.0029c-20.667 0 -43.667 3.16699 -69 9.5s-48 14.833 -68 25.5c-24.667 -96 -68.167 -173.833 -130.5 -233.5s-131.5 -106.167 -207.5 -139.5c-69.333 -30 -140 -51.833 -212 -65.5s-138.667 -20.5 -200 -20.5v188c42.667 0 100.334 5.83301 173.001 17.5
s137.334 30.834 194.001 57.501c76 35.333 133.167 78.5 171.5 129.5s57.5 112.833 57.5 185.5c0 39.333 -5.33301 78.5 -16 117.5s-22.667 73.167 -36 102.5s-26.666 55.166 -39.999 77.499s-24.333 39.833 -33 52.5v12h193c4 -7.33301 14 -29 30 -65l42 -97
c25.333 -58.667 54 -101 86 -127s68.667 -39 110 -39h31v-188zM627.997 961h-148v148h148v-148zM627.997 752h-148v148h148v-148zM359.997 961h-148v148h148v-148zM359.997 752h-148v148h148v-148z" />
    <glyph glyph-name="uni069A.init" unicode="&#x69a;" horiz-adv-x="2007" 
d="M1896 446c0 -144 -33.166 -255.333 -99.499 -334s-159.166 -118 -278.499 -118c-51.333 0 -101.833 9 -151.5 27s-86.834 42.333 -111.501 73c-37.333 -31.333 -76 -55.833 -116 -73.5s-95.333 -26.5 -166 -26.5c-80.667 0 -149.667 13.333 -207 40
s-101.666 63 -132.999 109c-38.667 -42.667 -81.334 -77.167 -128.001 -103.5s-102.334 -39.5 -167.001 -39.5h-408v188h461c44.667 0 78.667 7 102 21s39.333 32.333 48 55s13.167 47.167 13.5 73.5s0.5 59.833 0.5 100.5v107h166c0 -126.667 19.5 -218.834 58.5 -276.501
s103.5 -86.5 193.5 -86.5c73.333 0 128.5 21.5 165.5 64.5s55.5 103.5 55.5 181.5v117h166v-150c0 -67.333 14.833 -119.666 44.5 -156.999s68.167 -56 115.5 -56c72.667 0 126 21.667 160 65s51 114 51 212v258h165v-271zM1354 840h-148v148h148v-148zM1354 -319h-148v148
h148v-148z" />
    <glyph glyph-name="uni069A.medi" unicode="&#x69a;" horiz-adv-x="2173" 
d="M1808 129c-34 -47.333 -75.1689 -81.665 -123.502 -102.998s-103.833 -32 -166.5 -32c-51.333 0 -101.833 9 -151.5 27s-86.834 42.333 -111.501 73c-37.333 -31.333 -76 -55.833 -116 -73.5s-95.333 -26.5 -166 -26.5c-80.667 0 -149.667 13.333 -207 40
s-101.666 63 -132.999 109c-44.667 -49.333 -90.167 -85.5 -136.5 -108.5s-99.166 -34.5 -158.499 -34.5h-408v188h400c44.667 0 81.834 7 111.501 21s52.5 32.333 68.5 55c17.333 24.667 29.166 51.5 35.499 80.5s9.5 60.167 9.5 93.5v107h166c0 -126 19.333 -218 58 -276
s103.334 -87 194.001 -87c73.333 0 128.5 21.5 165.5 64.5s55.5 103.5 55.5 181.5v117h166v-150c0 -68.667 14.833 -121.334 44.5 -158.001s68.167 -55 115.5 -55c75.333 0 129 22 161 66s48 114.333 48 211v258h167v-291c0 -72.667 18.5 -130.5 55.5 -173.5
s86.833 -64.5 149.5 -64.5h72v-188h-117c-42 0 -88 12.167 -138 36.5s-86.667 55.166 -110 92.499zM1344 840.001h-148v148h148v-148zM1344 -318.999h-148v148h148v-148z" />
    <glyph glyph-name="uni069A.fina" unicode="&#x69a;" horiz-adv-x="2652" 
d="M2654 0l-119.004 0.000976562c-42 0 -88.167 12.167 -138.5 36.5s-87.166 55.166 -110.499 92.499c-32 -44 -71.5 -77.5 -118.5 -100.5s-104.5 -34.5 -172.5 -34.5c-51.333 0 -101.833 9 -151.5 27s-86.5 42.333 -110.5 73c-38 -31.333 -77 -55.833 -117 -73.5
s-95.333 -26.5 -166 -26.5c-50 0 -97.667 6.33301 -143 19s-80.333 28 -105 46c-10 -134.667 -70.167 -248.834 -180.5 -342.501s-246.166 -140.5 -407.499 -140.5c-77.333 0 -148.666 9.66699 -213.999 29s-120.666 49.666 -165.999 90.999s-80.333 95 -105 161
s-37 144.333 -37 235c0 66.667 4.16699 132.667 12.5 198s13.166 102.333 14.499 111h182v-16c-7.33301 -24.667 -16.333 -67.167 -27 -127.5s-16 -116.166 -16 -167.499c0 -103.333 29.5 -183.5 88.5 -240.5s148.167 -85.5 267.5 -85.5c138 0 242.833 36.333 314.5 109
s107.5 181.334 107.5 326.001c0 56 -1.66699 122.5 -5 199.5s-5.66602 125.833 -6.99902 146.5h178c0 -136.667 20.5 -231.334 61.5 -284.001s103.167 -79 186.5 -79c73.333 0 128.5 21.5 165.5 64.5s55.5 103.5 55.5 181.5v117h166v-150c0 -69.333 15 -122.166 45 -158.499
s68.333 -54.5 115 -54.5c74.667 0 128.5 21.833 161.5 65.5s49.5 114.167 49.5 211.5v258h166v-260c0 -92.667 17.5 -160.667 52.5 -204s86.167 -65 153.5 -65h74v-188zM1507 801.001h-148v148h148v-148zM1507 -318.999h-148v148h148v-148z" />
    <glyph glyph-name="uni069B.init" unicode="&#x69b;" horiz-adv-x="2007" 
d="M1896 446c0 -144 -33.166 -255.333 -99.499 -334s-159.166 -118 -278.499 -118c-51.333 0 -101.833 9 -151.5 27s-86.834 42.333 -111.501 73c-37.333 -31.333 -76 -55.833 -116 -73.5s-95.333 -26.5 -166 -26.5c-80.667 0 -149.667 13.333 -207 40
s-101.666 63 -132.999 109c-38.667 -42.667 -81.334 -77.167 -128.001 -103.5s-102.334 -39.5 -167.001 -39.5h-408v188h461c44.667 0 78.667 7 102 21s39.333 32.333 48 55s13.167 47.167 13.5 73.5s0.5 59.833 0.5 100.5v107h166c0 -126.667 19.5 -218.834 58.5 -276.501
s103.5 -86.5 193.5 -86.5c73.333 0 128.5 21.5 165.5 64.5s55.5 103.5 55.5 181.5v117h166v-150c0 -67.333 14.833 -119.666 44.5 -156.999s68.167 -56 115.5 -56c72.667 0 126 21.667 160 65s51 114 51 212v258h165v-271zM1197 -214h-148v148h148v-148zM1493 -214h-148v148
h148v-148zM1345 -423h-148v148h148v-148z" />
    <glyph glyph-name="uni069B.medi" unicode="&#x69b;" horiz-adv-x="2173" 
d="M1808 129c-34 -47.333 -75.1689 -81.665 -123.502 -102.998s-103.833 -32 -166.5 -32c-51.333 0 -101.833 9 -151.5 27s-86.834 42.333 -111.501 73c-37.333 -31.333 -76 -55.833 -116 -73.5s-95.333 -26.5 -166 -26.5c-80.667 0 -149.667 13.333 -207 40
s-101.666 63 -132.999 109c-44.667 -49.333 -90.167 -85.5 -136.5 -108.5s-99.166 -34.5 -158.499 -34.5h-408v188h400c44.667 0 81.834 7 111.501 21s52.5 32.333 68.5 55c17.333 24.667 29.166 51.5 35.499 80.5s9.5 60.167 9.5 93.5v107h166c0 -126 19.333 -218 58 -276
s103.334 -87 194.001 -87c73.333 0 128.5 21.5 165.5 64.5s55.5 103.5 55.5 181.5v117h166v-150c0 -68.667 14.833 -121.334 44.5 -158.001s68.167 -55 115.5 -55c75.333 0 129 22 161 66s48 114.333 48 211v258h167v-291c0 -72.667 18.5 -130.5 55.5 -173.5
s86.833 -64.5 149.5 -64.5h72v-188h-117c-42 0 -88 12.167 -138 36.5s-86.667 55.166 -110 92.499zM1197 -213.999h-148v148h148v-148zM1493 -213.999h-148v148h148v-148zM1345 -422.999h-148v148h148v-148z" />
    <glyph glyph-name="uni069B.fina" unicode="&#x69b;" horiz-adv-x="2652" 
d="M2654 0l-119.004 0.000976562c-42 0 -88.167 12.167 -138.5 36.5s-87.166 55.166 -110.499 92.499c-32 -44 -71.5 -77.5 -118.5 -100.5s-104.5 -34.5 -172.5 -34.5c-51.333 0 -101.833 9 -151.5 27s-86.5 42.333 -110.5 73c-38 -31.333 -77 -55.833 -117 -73.5
s-95.333 -26.5 -166 -26.5c-50 0 -97.667 6.33301 -143 19s-80.333 28 -105 46c-10 -134.667 -70.167 -248.834 -180.5 -342.501s-246.166 -140.5 -407.499 -140.5c-77.333 0 -148.666 9.66699 -213.999 29s-120.666 49.666 -165.999 90.999s-80.333 95 -105 161
s-37 144.333 -37 235c0 66.667 4.16699 132.667 12.5 198s13.166 102.333 14.499 111h182v-16c-7.33301 -24.667 -16.333 -67.167 -27 -127.5s-16 -116.166 -16 -167.499c0 -103.333 29.5 -183.5 88.5 -240.5s148.167 -85.5 267.5 -85.5c138 0 242.833 36.333 314.5 109
s107.5 181.334 107.5 326.001c0 56 -1.66699 122.5 -5 199.5s-5.66602 125.833 -6.99902 146.5h178c0 -136.667 20.5 -231.334 61.5 -284.001s103.167 -79 186.5 -79c73.333 0 128.5 21.5 165.5 64.5s55.5 103.5 55.5 181.5v117h166v-150c0 -69.333 15 -122.166 45 -158.499
s68.333 -54.5 115 -54.5c74.667 0 128.5 21.833 161.5 65.5s49.5 114.167 49.5 211.5v258h166v-260c0 -92.667 17.5 -160.667 52.5 -204s86.167 -65 153.5 -65h74v-188zM1671 -213.999h-148v148h148v-148zM1967 -213.999h-148v148h148v-148zM1819 -422.999h-148v148h148
v-148z" />
    <glyph glyph-name="uni069C.init" unicode="&#x69c;" horiz-adv-x="2007" 
d="M1896 446c0 -144 -33.166 -255.333 -99.499 -334s-159.166 -118 -278.499 -118c-51.333 0 -101.833 9 -151.5 27s-86.834 42.333 -111.501 73c-37.333 -31.333 -76 -55.833 -116 -73.5s-95.333 -26.5 -166 -26.5c-80.667 0 -149.667 13.333 -207 40
s-101.666 63 -132.999 109c-38.667 -42.667 -81.334 -77.167 -128.001 -103.5s-102.334 -39.5 -167.001 -39.5h-408v188h461c44.667 0 78.667 7 102 21s39.333 32.333 48 55s13.167 47.167 13.5 73.5s0.5 59.833 0.5 100.5v107h166c0 -126.667 19.5 -218.834 58.5 -276.501
s103.5 -86.5 193.5 -86.5c73.333 0 128.5 21.5 165.5 64.5s55.5 103.5 55.5 181.5v117h166v-150c0 -67.333 14.833 -119.666 44.5 -156.999s68.167 -56 115.5 -56c72.667 0 126 21.667 160 65s51 114 51 212v258h165v-271zM1197 -214h-148v148h148v-148zM1493 -214h-148v148
h148v-148zM1345 -423h-148v148h148v-148zM1197 801h-148v148h148v-148zM1493 801h-148v148h148v-148zM1345 1010h-148v148h148v-148z" />
    <glyph glyph-name="uni069C.medi" unicode="&#x69c;" horiz-adv-x="2173" 
d="M1808 129c-34 -47.333 -75.1689 -81.665 -123.502 -102.998s-103.833 -32 -166.5 -32c-51.333 0 -101.833 9 -151.5 27s-86.834 42.333 -111.501 73c-37.333 -31.333 -76 -55.833 -116 -73.5s-95.333 -26.5 -166 -26.5c-80.667 0 -149.667 13.333 -207 40
s-101.666 63 -132.999 109c-44.667 -49.333 -90.167 -85.5 -136.5 -108.5s-99.166 -34.5 -158.499 -34.5h-408v188h400c44.667 0 81.834 7 111.501 21s52.5 32.333 68.5 55c17.333 24.667 29.166 51.5 35.499 80.5s9.5 60.167 9.5 93.5v107h166c0 -126 19.333 -218 58 -276
s103.334 -87 194.001 -87c73.333 0 128.5 21.5 165.5 64.5s55.5 103.5 55.5 181.5v117h166v-150c0 -68.667 14.833 -121.334 44.5 -158.001s68.167 -55 115.5 -55c75.333 0 129 22 161 66s48 114.333 48 211v258h167v-291c0 -72.667 18.5 -130.5 55.5 -173.5
s86.833 -64.5 149.5 -64.5h72v-188h-117c-42 0 -88 12.167 -138 36.5s-86.667 55.166 -110 92.499zM1197 -213.999h-148v148h148v-148zM1493 -213.999h-148v148h148v-148zM1345 -422.999h-148v148h148v-148zM1197 801.001h-148v148h148v-148zM1493 801.001h-148v148h148
v-148zM1345 1010h-148v148h148v-148z" />
    <glyph glyph-name="uni069C.fina" unicode="&#x69c;" horiz-adv-x="2652" 
d="M2654 0l-119.004 0.000976562c-42 0 -88.167 12.167 -138.5 36.5s-87.166 55.166 -110.499 92.499c-32 -44 -71.5 -77.5 -118.5 -100.5s-104.5 -34.5 -172.5 -34.5c-51.333 0 -101.833 9 -151.5 27s-86.5 42.333 -110.5 73c-38 -31.333 -77 -55.833 -117 -73.5
s-95.333 -26.5 -166 -26.5c-50 0 -97.667 6.33301 -143 19s-80.333 28 -105 46c-10 -134.667 -70.167 -248.834 -180.5 -342.501s-246.166 -140.5 -407.499 -140.5c-77.333 0 -148.666 9.66699 -213.999 29s-120.666 49.666 -165.999 90.999s-80.333 95 -105 161
s-37 144.333 -37 235c0 66.667 4.16699 132.667 12.5 198s13.166 102.333 14.499 111h182v-16c-7.33301 -24.667 -16.333 -67.167 -27 -127.5s-16 -116.166 -16 -167.499c0 -103.333 29.5 -183.5 88.5 -240.5s148.167 -85.5 267.5 -85.5c138 0 242.833 36.333 314.5 109
s107.5 181.334 107.5 326.001c0 56 -1.66699 122.5 -5 199.5s-5.66602 125.833 -6.99902 146.5h178c0 -136.667 20.5 -231.334 61.5 -284.001s103.167 -79 186.5 -79c73.333 0 128.5 21.5 165.5 64.5s55.5 103.5 55.5 181.5v117h166v-150c0 -69.333 15 -122.166 45 -158.499
s68.333 -54.5 115 -54.5c74.667 0 128.5 21.833 161.5 65.5s49.5 114.167 49.5 211.5v258h166v-260c0 -92.667 17.5 -160.667 52.5 -204s86.167 -65 153.5 -65h74v-188zM1671 -213.999h-148v148h148v-148zM1967 -213.999h-148v148h148v-148zM1819 -422.999h-148v148h148
v-148zM1671 801.001h-148v148h148v-148zM1967 801.001h-148v148h148v-148zM1819 1010h-148v148h148v-148z" />
    <glyph glyph-name="uni069D.init" unicode="&#x69d;" horiz-adv-x="1552" 
d="M1460 408c0 -56 -12.835 -108.831 -38.502 -158.498s-64.167 -92.834 -115.5 -129.501s-115.333 -65.834 -192 -87.501s-167.334 -32.5 -272.001 -32.5h-400c-42.667 0 -81.667 6.5 -117 19.5s-66.666 33.833 -93.999 62.5c-25.333 -28 -55.333 -48.667 -90 -62
s-74 -20 -118 -20h-93v188h97c44.667 0 75.834 17 93.501 51s26.5 80.667 26.5 140v10h168v-10c0 -36.667 3.66699 -69.667 11 -99s19.333 -51.666 36 -66.999c47.333 78.667 99.833 154.167 157.5 226.5s117.5 136.5 179.5 192.5c60.667 55.333 123 99.666 187 132.999
s124.333 50 181 50c110.667 0 203.834 -37.5 279.501 -112.5s113.5 -173.167 113.5 -294.5zM1112 227.002c67.333 20.667 114.501 44.834 141.501 72.501s40.5 62.167 40.5 103.5c0 61.333 -21.833 114.333 -65.5 159s-98.167 67 -163.5 67c-40.667 0 -85 -15.5 -133 -46.5
s-97.333 -70.167 -148 -117.5c-44.667 -41.333 -88.334 -87.5 -131.001 -138.5s-77.334 -97.167 -104.001 -138.5h174c57.333 0 125.333 3.16699 204 9.5s140.334 16.166 185.001 29.499zM610.999 -318.998h-148v148h148v-148zM878.999 -318.998h-148v148h148v-148z" />
    <glyph glyph-name="uni069D.medi" unicode="&#x69d;" horiz-adv-x="1571" 
d="M1571 0l-117.001 0.000976562c-32.667 0 -69 7.16699 -109 21.5s-73.333 33.833 -100 58.5c-34 -22 -87.167 -40.833 -159.5 -56.5s-132.5 -23.5 -180.5 -23.5h-463c-42.667 0 -81.667 6.5 -117 19.5s-66.666 33.833 -93.999 62.5c-25.333 -28 -55.333 -48.667 -90 -62
s-74 -20 -118 -20h-93v188h97c44.667 0 75.834 17 93.501 51s26.5 80.667 26.5 140v10h168v-10c0 -38.667 3.66699 -73.334 11 -104.001s19.333 -53.334 36 -68.001c48 80 100.667 156 158 228s117 136.667 179 194c59.333 54.667 121.666 99.334 186.999 134.001
s125.666 52 180.999 52c107.333 0 199.666 -36.5 276.999 -109.5s116 -172.167 116 -297.5c0 -33.333 -5.16699 -67.5 -15.5 -102.5s-25.5 -65.833 -45.5 -92.5c16.667 -8.66699 32.334 -15 47.001 -19s32.334 -6 53.001 -6h72v-188zM1098 227.001
c57.333 16 104.334 37.668 141.001 65.001s55 64.333 55 111c0 57.333 -20.667 109.333 -62 156s-97 70 -167 70c-40.667 0 -85 -15.5 -133 -46.5s-97.333 -70.167 -148 -117.5c-44.667 -41.333 -88.334 -87.5 -131.001 -138.5s-77.334 -97.167 -104.001 -138.5h174
c50 0 113.333 3.16699 190 9.5s138.334 16.166 185.001 29.499zM611 -318.998h-148v148h148v-148zM879 -318.998h-148v148h148v-148z" />
    <glyph glyph-name="uni069D.fina" unicode="&#x69d;" horiz-adv-x="2384" 
d="M2384 0l-117.002 0.000976562c-31.333 0 -66.5 6.5 -105.5 19.5s-73.5 33.167 -103.5 60.5c-33.333 -23.333 -82.166 -42.5 -146.499 -57.5s-119.833 -22.5 -166.5 -22.5h-639c-18.667 -129.333 -74.667 -232.333 -168 -309s-214.333 -115 -363 -115
c-150.667 0 -268.834 42.833 -354.501 128.5s-128.5 203.167 -128.5 352.5c0 95.333 4 171.5 12 228.5s13 91.5 15 103.5h182v-16c-7.33301 -30 -16.333 -76.833 -27 -140.5s-16 -122.834 -16 -177.501c0 -98 28.833 -171 86.5 -219s133.834 -72 228.501 -72
c56.667 0 108 6.66699 154 20s85 37 117 71c34.667 36 60.334 82.5 77.001 139.5s25 125.167 25 204.5c0 50.667 -1.5 92 -4.5 124s-5.5 54 -7.5 66h178v-12c0 -38 6 -73.667 18 -107s27.333 -57 46 -71c102 174 218.833 320.167 350.5 438.5s249.5 177.5 353.5 177.5
c112 0 205.5 -38 280.5 -114s112.5 -173.667 112.5 -293c0 -33.333 -5.16699 -67.5 -15.5 -102.5s-25.5 -65.833 -45.5 -92.5c17.333 -8.66699 33.166 -15 47.5 -19c14.333 -4 31.833 -6 52.5 -6h72v-188zM1925 227.001c70 21.333 117.835 46.501 143.502 75.501
s38.5 62.5 38.5 100.5c0 61.333 -21.333 114.333 -64 159s-97.667 67 -165 67c-40.667 0 -85 -15.5 -133 -46.5s-97.333 -70.167 -148 -117.5c-44.667 -41.333 -88.334 -87.5 -131.001 -138.5s-77.334 -97.167 -104.001 -138.5h174c57.333 0 125.5 3.16699 204.5 9.5
s140.5 16.166 184.5 29.499zM1642 -318.998h-148v148h148v-148zM1910 -318.998h-148v148h148v-148z" />
    <glyph glyph-name="uni069E.init" unicode="&#x69e;" horiz-adv-x="1552" 
d="M1460 408c0 -56 -12.835 -108.831 -38.502 -158.498s-64.167 -92.834 -115.5 -129.501s-115.333 -65.834 -192 -87.501s-167.334 -32.5 -272.001 -32.5h-400c-42.667 0 -81.667 6.5 -117 19.5s-66.666 33.833 -93.999 62.5c-25.333 -28 -55.333 -48.667 -90 -62
s-74 -20 -118 -20h-93v188h97c44.667 0 75.834 17 93.501 51s26.5 80.667 26.5 140v10h168v-10c0 -36.667 3.66699 -69.667 11 -99s19.333 -51.666 36 -66.999c47.333 78.667 99.833 154.167 157.5 226.5s117.5 136.5 179.5 192.5c60.667 55.333 123 99.666 187 132.999
s124.333 50 181 50c110.667 0 203.834 -37.5 279.501 -112.5s113.5 -173.167 113.5 -294.5zM1112 227.002c67.333 20.667 114.501 44.834 141.501 72.501s40.5 62.167 40.5 103.5c0 61.333 -21.833 114.333 -65.5 159s-98.167 67 -163.5 67c-40.667 0 -85 -15.5 -133 -46.5
s-97.333 -70.167 -148 -117.5c-44.667 -41.333 -88.334 -87.5 -131.001 -138.5s-77.334 -97.167 -104.001 -138.5h174c57.333 0 125.333 3.16699 204 9.5s140.334 16.166 185.001 29.499zM452.999 939.002h-148v148h148v-148zM748.999 939.002h-148v148h148v-148z
M600.999 1148h-148v148h148v-148z" />
    <glyph glyph-name="uni069E.medi" unicode="&#x69e;" horiz-adv-x="1571" 
d="M1571 0l-117.001 0.000976562c-32.667 0 -69 7.16699 -109 21.5s-73.333 33.833 -100 58.5c-34 -22 -87.167 -40.833 -159.5 -56.5s-132.5 -23.5 -180.5 -23.5h-463c-42.667 0 -81.667 6.5 -117 19.5s-66.666 33.833 -93.999 62.5c-25.333 -28 -55.333 -48.667 -90 -62
s-74 -20 -118 -20h-93v188h97c44.667 0 75.834 17 93.501 51s26.5 80.667 26.5 140v10h168v-10c0 -38.667 3.66699 -73.334 11 -104.001s19.333 -53.334 36 -68.001c48 80 100.667 156 158 228s117 136.667 179 194c59.333 54.667 121.666 99.334 186.999 134.001
s125.666 52 180.999 52c107.333 0 199.666 -36.5 276.999 -109.5s116 -172.167 116 -297.5c0 -33.333 -5.16699 -67.5 -15.5 -102.5s-25.5 -65.833 -45.5 -92.5c16.667 -8.66699 32.334 -15 47.001 -19s32.334 -6 53.001 -6h72v-188zM1098 227.001
c57.333 16 104.334 37.668 141.001 65.001s55 64.333 55 111c0 57.333 -20.667 109.333 -62 156s-97 70 -167 70c-40.667 0 -85 -15.5 -133 -46.5s-97.333 -70.167 -148 -117.5c-44.667 -41.333 -88.334 -87.5 -131.001 -138.5s-77.334 -97.167 -104.001 -138.5h174
c50 0 113.333 3.16699 190 9.5s138.334 16.166 185.001 29.499zM453 939.002h-148v148h148v-148zM749 939.002h-148v148h148v-148zM601 1148h-148v148h148v-148z" />
    <glyph glyph-name="uni069E.fina" unicode="&#x69e;" horiz-adv-x="2384" 
d="M2384 0l-117.002 0.000976562c-31.333 0 -66.5 6.5 -105.5 19.5s-73.5 33.167 -103.5 60.5c-33.333 -23.333 -82.166 -42.5 -146.499 -57.5s-119.833 -22.5 -166.5 -22.5h-639c-18.667 -129.333 -74.667 -232.333 -168 -309s-214.333 -115 -363 -115
c-150.667 0 -268.834 42.833 -354.501 128.5s-128.5 203.167 -128.5 352.5c0 95.333 4 171.5 12 228.5s13 91.5 15 103.5h182v-16c-7.33301 -30 -16.333 -76.833 -27 -140.5s-16 -122.834 -16 -177.501c0 -98 28.833 -171 86.5 -219s133.834 -72 228.501 -72
c56.667 0 108 6.66699 154 20s85 37 117 71c34.667 36 60.334 82.5 77.001 139.5s25 125.167 25 204.5c0 50.667 -1.5 92 -4.5 124s-5.5 54 -7.5 66h178v-12c0 -38 6 -73.667 18 -107s27.333 -57 46 -71c102 174 218.833 320.167 350.5 438.5s249.5 177.5 353.5 177.5
c112 0 205.5 -38 280.5 -114s112.5 -173.667 112.5 -293c0 -33.333 -5.16699 -67.5 -15.5 -102.5s-25.5 -65.833 -45.5 -92.5c17.333 -8.66699 33.166 -15 47.5 -19c14.333 -4 31.833 -6 52.5 -6h72v-188zM1925 227.001c70 21.333 117.835 46.501 143.502 75.501
s38.5 62.5 38.5 100.5c0 61.333 -21.333 114.333 -64 159s-97.667 67 -165 67c-40.667 0 -85 -15.5 -133 -46.5s-97.333 -70.167 -148 -117.5c-44.667 -41.333 -88.334 -87.5 -131.001 -138.5s-77.334 -97.167 -104.001 -138.5h174c57.333 0 125.5 3.16699 204.5 9.5
s140.5 16.166 184.5 29.499zM1628 1063h-148v148h148v-148zM1924 1063h-148v148h148v-148zM1776 1272h-148v148h148v-148z" />
    <glyph glyph-name="uni069F.medi" unicode="&#x69f;" horiz-adv-x="1442" 
d="M1442 0l-119.006 -0.00195312c-34.667 0 -71.167 6.83301 -109.5 20.5s-70.833 33.5 -97.5 59.5c-39.333 -22.667 -82.333 -41.667 -129 -57s-104.667 -23 -174 -23h-883v188h242c2.66699 0 7.83398 3 15.501 9s15.834 13.667 24.501 23
c10 10.667 18.5 20.334 25.5 29.001s10.5 17.667 10.5 27v1280h166v-1079c78.667 94.667 165.334 174.667 260.001 240s181.334 98 260.001 98c108 0 200.833 -36.833 278.5 -110.5s116.5 -172.5 116.5 -296.5c0 -42 -6.83301 -81.167 -20.5 -117.5
s-27.167 -62.166 -40.5 -77.499c16.667 -8.66699 32.334 -15 47.001 -19s32.334 -6 53.001 -6h74v-188zM978.994 226.998c66.667 20.667 113.668 45.168 141.001 73.501s41 62.5 41 102.5c0 57.333 -20.667 109.333 -62 156s-97 70 -167 70c-40.667 0 -85 -15.5 -133 -46.5
s-97.333 -70.167 -148 -117.5c-44.667 -41.333 -88.334 -87.5 -131.001 -138.5s-77.334 -97.167 -104.001 -138.5h174c57.333 0 125.333 3.16699 204 9.5s140.334 16.166 185.001 29.499zM675.995 1063h-148v148h148v-148zM971.995 1063h-148v148h148v-148zM823.995 1272
h-148v148h148v-148z" />
    <glyph glyph-name="uni06A0.init" unicode="&#x6a0;" horiz-adv-x="1214" 
d="M1137 162c-192.667 -52 -352.5 -92.0029 -479.5 -120.003s-237.5 -42 -331.5 -42h-396v188h473c-56.667 26.667 -106.334 69.834 -149.001 129.501s-64 125.834 -64 198.501c0 125.333 42.5 227 127.5 305s191.5 117 319.5 117c80 0 155.833 -7.66699 227.5 -23
s129.5 -35 173.5 -59v-213h-10c-44 32 -99 58.833 -165 80.5s-138.667 32.5 -218 32.5c-87.333 0 -157.333 -23 -210 -69s-79 -104.333 -79 -175c0 -60 24.167 -115.667 72.5 -167s111.5 -89.333 189.5 -114c60.667 8.66699 147.334 27.334 260.001 56.001
s199 51.667 259 69v-194zM590 1112h-148v148h148v-148zM886 1112h-148v148h148v-148zM738 1321h-148v148h148v-148z" />
    <glyph glyph-name="uni06A0.medi" unicode="&#x6a0;" horiz-adv-x="989" 
d="M989 0l-165.999 0.00195312c-64 0 -123.5 13 -178.5 39s-105.167 56.667 -150.5 92c-46 -36 -96 -66.833 -150 -92.5s-114 -38.5 -180 -38.5h-234v188h238c42.667 0 79.167 4.33301 109.5 13s56.5 19.334 78.5 32.001c-8.66699 6 -26.5 19.5 -53.5 40.5
s-58.167 48.833 -93.5 83.5c-37.333 35.333 -71.333 74.166 -102 116.499s-46 80.5 -46 114.5c0 44 14.833 81.5 44.5 112.5s66.167 56.5 109.5 76.5c47.333 21.333 96.166 36.166 146.499 44.499s94.5 12.5 132.5 12.5c42.667 0 88.834 -4.33301 138.501 -13
s96.5 -22.334 140.5 -41.001c44.667 -19.333 81.667 -44 111 -74s44 -68 44 -114c0 -36 -16.333 -75.667 -49 -119s-66 -81 -100 -113c-40.667 -38 -73.834 -66.667 -99.501 -86l-50.5 -38c10 -6 33.333 -15.5 70 -28.5s76.667 -19.5 120 -19.5h170v-188zM628.001 408.002
c36 26.667 67.333 52.001 94 76.001s40 43.667 40 59c0 21.333 -9.16699 38.5 -27.5 51.5s-41.166 23.167 -68.499 30.5c-28 7.33301 -58.5 12.166 -91.5 14.499s-59.833 3.5 -80.5 3.5c-82.667 0 -147.834 -9 -195.501 -27s-71.5 -41.667 -71.5 -71
c0 -15.333 14.5 -36.333 43.5 -63s59.167 -51 90.5 -73c35.333 -26 64.333 -46.167 87 -60.5l46 -29.5c8.66699 4.66699 25 14.667 49 30s52.333 35 85 59zM421.001 1023h-148v148h148v-148zM717.001 1023h-148v148h148v-148zM569.001 1232h-148v148h148v-148z" />
    <glyph glyph-name="uni06A0.fina" unicode="&#x6a0;" horiz-adv-x="1200" 
d="M1118 -322c-49.333 -30 -118.502 -54.502 -207.502 -73.502s-171.833 -28.5 -248.5 -28.5c-168 0 -305 42.5 -411 127.5s-159 198.167 -159 339.5c0 43.333 7.5 85.333 22.5 126s37.833 77.667 68.5 111c26.667 30.667 58 57 94 79s72 41 108 57l-37 33
c-72 64 -121.333 118.167 -148 162.5s-40 86.833 -40 127.5c0 40 13 74.833 39 104.5s58.667 54.5 98 74.5c36 18.667 79.333 33.167 130 43.5s95.334 15.5 134.001 15.5c42 0 86.333 -4.66699 133 -14s90 -23.666 130 -42.999c40.667 -20 74 -45 100 -75
s39 -66.667 39 -110c0 -48 -10.333 -91 -31 -129s-45.667 -70.333 -75 -97s-61.666 -50 -96.999 -70s-67.333 -36 -96 -48l-33 -14l49 -43c48 -42.667 98.833 -77.667 152.5 -105s115.5 -41 185.5 -41h182v-188h-186c-42 0 -82.333 6.5 -121 19.5s-77 31.5 -115 55.5
c-34 21.333 -69.833 48 -107.5 80l-107.5 95l-67 61c-70.667 -32.667 -128 -70.5 -172 -113.5s-66 -94.5 -66 -154.5c0 -84 35.833 -151.833 107.5 -203.5s169.5 -77.5 293.5 -77.5c76 0 158.5 13.333 247.5 40s156.167 56.334 201.5 89.001h10v-213zM792.998 691.998
c0 28.667 -17.666 51.5 -52.999 68.5s-95 25.5 -179 25.5c-80 0 -138.5 -8.83301 -175.5 -26.5s-55.5 -39.5 -55.5 -65.5c0 -16 15 -41 45 -75s64.667 -68.333 104 -103l45 -39l23 8c89.333 36.667 152.666 70.5 189.999 101.5s56 66.167 56 105.5zM478.999 1196h-148v148
h148v-148zM774.999 1196h-148v148h148v-148zM626.999 1405h-148v148h148v-148z" />
    <glyph glyph-name="afii57459" unicode="&#x6a1;" horiz-adv-x="840" 
d="M635 966c35.333 -52 63.332 -116.331 83.999 -192.998s31 -164.334 31 -263.001c0 -84.667 -18.167 -159.667 -54.5 -225s-82.5 -118.333 -138.5 -159c-56 -42 -117.667 -73.5 -185 -94.5s-133.333 -31.5 -198 -31.5h-244v188h246c45.333 0 92 6 140 18s91 29.667 129 53
c42.667 26 75.5 56.5 98.5 91.5s34.5 73.833 34.5 116.5c-17.333 -10 -41.333 -19.333 -72 -28s-58.667 -13 -84 -13c-59.333 0 -111.833 8.33301 -157.5 25s-84.5 40.667 -116.5 72c-30.667 30 -53.5 63.833 -68.5 101.5s-22.5 77.167 -22.5 118.5
c0 95.333 32.833 181.666 98.5 258.999s138.834 116 219.501 116c48.667 0 95.667 -13 141 -39s85 -63.667 119 -113zM564.999 653.002c0 18.667 -4.00195 43.501 -12.002 74.501s-20.333 62.5 -37 94.5c-17.333 33.333 -36.833 59.666 -58.5 78.999s-45.167 29 -70.5 29
c-42.667 0 -79.667 -18 -111 -54s-47 -78 -47 -126c0 -39.333 18.333 -71.833 55 -97.5s85.334 -38.5 146.001 -38.5c24 0 47.833 3.5 71.5 10.5s44.834 16.5 63.501 28.5z" />
    <glyph glyph-name="afii57374" unicode="&#x6a1;" horiz-adv-x="1032" 
d="M1032 0l-164.003 -0.000976562c-63.333 0 -126 8.83301 -188 26.5s-118 38.834 -168 63.501c-55.333 -26 -110.166 -47.5 -164.499 -64.5s-118.833 -25.5 -193.5 -25.5h-224v188h228c52 0 94.5 3.83301 127.5 11.5s53.167 12.167 60.5 13.5
c-4.66699 2.66699 -14.667 8.83398 -30 18.501s-33.333 25.5 -54 47.5c-21.333 22 -40.666 49.667 -57.999 83s-26 71 -26 113c0 102 30.5 187.333 91.5 256s139.833 103 236.5 103c92 0 170.333 -34 235 -102s97 -153 97 -255c0 -42 -8.16699 -80.333 -24.5 -115
s-35.166 -63 -56.499 -85c-20.667 -22 -38 -37.833 -52 -47.5s-23.667 -15.834 -29 -18.501c12 -4.66699 37.167 -9.66699 75.5 -15s75.833 -8 112.5 -8h168v-188zM590.997 341.999c22.667 19.333 41.834 38.833 57.501 58.5s23.5 44.5 23.5 74.5
c0 42.667 -15.333 81.334 -46 116.001s-70.667 52 -120 52c-46 0 -84.5 -16.833 -115.5 -50.5s-46.5 -72.834 -46.5 -117.501c0 -25.333 8.83301 -49.5 26.5 -72.5s36.5 -42.833 56.5 -59.5c22 -18 40 -31.167 54 -39.5s23.667 -13.833 29 -16.5l30.5 17.5
c14.333 8.33301 31.166 20.833 50.499 37.5z" />
    <glyph glyph-name="afii52258" unicode="&#x6a1;" horiz-adv-x="1855" 
d="M1855 0l-163.003 0.00195312c-63.333 0 -126 8.83301 -188 26.5s-118.333 38.834 -169 63.501c-55.333 -26 -110.166 -47.5 -164.499 -64.5s-118.833 -25.5 -193.5 -25.5h-156c-243.333 0 -425.666 43.333 -546.999 130s-182 210.667 -182 372
c0 61.333 2.66699 108.666 8 141.999l9 56h163v-10c-1.33301 -6.66699 -4 -28.334 -8 -65.001s-6 -73.667 -6 -111c0 -47.333 9.5 -90.5 28.5 -129.5s50.833 -73.167 95.5 -102.5c48 -32 108.833 -55.667 182.5 -71s159.167 -23 256.5 -23h160c52 0 94.167 3.66699 126.5 11
l61.5 14l-30.5 19c-15 9.33301 -32.833 25 -53.5 47c-21.333 22 -40.666 49.667 -57.999 83s-26 71 -26 113c0 101.333 30.333 186.5 91 255.5s139.667 103.5 237 103.5c93.333 0 172 -34.333 236 -103s96 -153.334 96 -254.001c0 -42 -8.16699 -80.333 -24.5 -115
s-35.166 -63 -56.499 -85c-20.667 -22 -38.5 -38 -53.5 -48s-24.167 -16 -27.5 -18c11.333 -4 34.666 -8.83301 69.999 -14.5s75 -8.5 119 -8.5h167v-188zM1414 342.002c22.667 19.333 41.835 38.832 57.502 58.499s23.5 44.5 23.5 74.5
c0 42.667 -15.333 81.334 -46 116.001s-70.667 52 -120 52c-44.667 0 -82.834 -16.5 -114.501 -49.5s-47.5 -72.5 -47.5 -118.5c0 -25.333 8.83301 -49.5 26.5 -72.5s36.5 -42.833 56.5 -59.5c22 -18 40.167 -31.167 54.5 -39.5l28.5 -16.5c4 2 13.667 7.5 29 16.5
s32.666 21.833 51.999 38.5z" />
    <glyph glyph-name="uni06A2.init" unicode="&#x6a2;" horiz-adv-x="840" 
d="M635 966c35.333 -52 63.332 -116.331 83.999 -192.998s31 -164.334 31 -263.001c0 -84.667 -18.167 -159.667 -54.5 -225s-82.5 -118.333 -138.5 -159c-56 -42 -117.667 -73.5 -185 -94.5s-133.333 -31.5 -198 -31.5h-244v188h246c45.333 0 92 6 140 18s91 29.667 129 53
c42.667 26 75.5 56.5 98.5 91.5s34.5 73.833 34.5 116.5c-17.333 -10 -41.333 -19.333 -72 -28s-58.667 -13 -84 -13c-59.333 0 -111.833 8.33301 -157.5 25s-84.5 40.667 -116.5 72c-30.667 30 -53.5 63.833 -68.5 101.5s-22.5 77.167 -22.5 118.5
c0 95.333 32.833 181.666 98.5 258.999s138.834 116 219.501 116c48.667 0 95.667 -13 141 -39s85 -63.667 119 -113zM564.999 653.002c0 18.667 -4.00195 43.501 -12.002 74.501s-20.333 62.5 -37 94.5c-17.333 33.333 -36.833 59.666 -58.5 78.999s-45.167 29 -70.5 29
c-42.667 0 -79.667 -18 -111 -54s-47 -78 -47 -126c0 -39.333 18.333 -71.833 55 -97.5s85.334 -38.5 146.001 -38.5c24 0 47.833 3.5 71.5 10.5s44.834 16.5 63.501 28.5zM384.997 -318.997h-148v148h148v-148z" />
    <glyph glyph-name="uni06A2.medi" unicode="&#x6a2;" horiz-adv-x="1032" 
d="M1032 0l-164.003 -0.000976562c-63.333 0 -126 8.83301 -188 26.5s-118 38.834 -168 63.501c-55.333 -26 -110.166 -47.5 -164.499 -64.5s-118.833 -25.5 -193.5 -25.5h-224v188h228c52 0 94.5 3.83301 127.5 11.5s53.167 12.167 60.5 13.5
c-4.66699 2.66699 -14.667 8.83398 -30 18.501s-33.333 25.5 -54 47.5c-21.333 22 -40.666 49.667 -57.999 83s-26 71 -26 113c0 102 30.5 187.333 91.5 256s139.833 103 236.5 103c92 0 170.333 -34 235 -102s97 -153 97 -255c0 -42 -8.16699 -80.333 -24.5 -115
s-35.166 -63 -56.499 -85c-20.667 -22 -38 -37.833 -52 -47.5s-23.667 -15.834 -29 -18.501c12 -4.66699 37.167 -9.66699 75.5 -15s75.833 -8 112.5 -8h168v-188zM590.997 341.999c22.667 19.333 41.834 38.833 57.501 58.5s23.5 44.5 23.5 74.5
c0 42.667 -15.333 81.334 -46 116.001s-70.667 52 -120 52c-46 0 -84.5 -16.833 -115.5 -50.5s-46.5 -72.834 -46.5 -117.501c0 -25.333 8.83301 -49.5 26.5 -72.5s36.5 -42.833 56.5 -59.5c22 -18 40 -31.167 54 -39.5s23.667 -13.833 29 -16.5l30.5 17.5
c14.333 8.33301 31.166 20.833 50.499 37.5zM589.997 -319.001h-148v148h148v-148z" />
    <glyph glyph-name="uni06A2.fina" unicode="&#x6a2;" horiz-adv-x="1855" 
d="M1855 0l-163.003 0.00195312c-63.333 0 -126 8.83301 -188 26.5s-118.333 38.834 -169 63.501c-55.333 -26 -110.166 -47.5 -164.499 -64.5s-118.833 -25.5 -193.5 -25.5h-156c-243.333 0 -425.666 43.333 -546.999 130s-182 210.667 -182 372
c0 61.333 2.66699 108.666 8 141.999l9 56h163v-10c-1.33301 -6.66699 -4 -28.334 -8 -65.001s-6 -73.667 -6 -111c0 -47.333 9.5 -90.5 28.5 -129.5s50.833 -73.167 95.5 -102.5c48 -32 108.833 -55.667 182.5 -71s159.167 -23 256.5 -23h160c52 0 94.167 3.66699 126.5 11
l61.5 14l-30.5 19c-15 9.33301 -32.833 25 -53.5 47c-21.333 22 -40.666 49.667 -57.999 83s-26 71 -26 113c0 101.333 30.333 186.5 91 255.5s139.667 103.5 237 103.5c93.333 0 172 -34.333 236 -103s96 -153.334 96 -254.001c0 -42 -8.16699 -80.333 -24.5 -115
s-35.166 -63 -56.499 -85c-20.667 -22 -38.5 -38 -53.5 -48s-24.167 -16 -27.5 -18c11.333 -4 34.666 -8.83301 69.999 -14.5s75 -8.5 119 -8.5h167v-188zM1414 342.002c22.667 19.333 41.835 38.832 57.502 58.499s23.5 44.5 23.5 74.5
c0 42.667 -15.333 81.334 -46 116.001s-70.667 52 -120 52c-44.667 0 -82.834 -16.5 -114.501 -49.5s-47.5 -72.5 -47.5 -118.5c0 -25.333 8.83301 -49.5 26.5 -72.5s36.5 -42.833 56.5 -59.5c22 -18 40.167 -31.167 54.5 -39.5l28.5 -16.5c4 2 13.667 7.5 29 16.5
s32.666 21.833 51.999 38.5zM1385 -318.999h-148v148h148v-148z" />
    <glyph glyph-name="uni06A3.init" unicode="&#x6a3;" horiz-adv-x="840" 
d="M635 966c35.333 -52 63.332 -116.331 83.999 -192.998s31 -164.334 31 -263.001c0 -84.667 -18.167 -159.667 -54.5 -225s-82.5 -118.333 -138.5 -159c-56 -42 -117.667 -73.5 -185 -94.5s-133.333 -31.5 -198 -31.5h-244v188h246c45.333 0 92 6 140 18s91 29.667 129 53
c42.667 26 75.5 56.5 98.5 91.5s34.5 73.833 34.5 116.5c-17.333 -10 -41.333 -19.333 -72 -28s-58.667 -13 -84 -13c-59.333 0 -111.833 8.33301 -157.5 25s-84.5 40.667 -116.5 72c-30.667 30 -53.5 63.833 -68.5 101.5s-22.5 77.167 -22.5 118.5
c0 95.333 32.833 181.666 98.5 258.999s138.834 116 219.501 116c48.667 0 95.667 -13 141 -39s85 -63.667 119 -113zM564.999 653.002c0 18.667 -4.00195 43.501 -12.002 74.501s-20.333 62.5 -37 94.5c-17.333 33.333 -36.833 59.666 -58.5 78.999s-45.167 29 -70.5 29
c-42.667 0 -79.667 -18 -111 -54s-47 -78 -47 -126c0 -39.333 18.333 -71.833 55 -97.5s85.334 -38.5 146.001 -38.5c24 0 47.833 3.5 71.5 10.5s44.834 16.5 63.501 28.5zM385.997 1281h-148v148h148v-148zM384.997 -318.997h-148v148h148v-148z" />
    <glyph glyph-name="uni06A3.medi" unicode="&#x6a3;" horiz-adv-x="1032" 
d="M1032 0l-164.003 -0.000976562c-63.333 0 -126 8.83301 -188 26.5s-118 38.834 -168 63.501c-55.333 -26 -110.166 -47.5 -164.499 -64.5s-118.833 -25.5 -193.5 -25.5h-224v188h228c52 0 94.5 3.83301 127.5 11.5s53.167 12.167 60.5 13.5
c-4.66699 2.66699 -14.667 8.83398 -30 18.501s-33.333 25.5 -54 47.5c-21.333 22 -40.666 49.667 -57.999 83s-26 71 -26 113c0 102 30.5 187.333 91.5 256s139.833 103 236.5 103c92 0 170.333 -34 235 -102s97 -153 97 -255c0 -42 -8.16699 -80.333 -24.5 -115
s-35.166 -63 -56.499 -85c-20.667 -22 -38 -37.833 -52 -47.5s-23.667 -15.834 -29 -18.501c12 -4.66699 37.167 -9.66699 75.5 -15s75.833 -8 112.5 -8h168v-188zM590.997 341.999c22.667 19.333 41.834 38.833 57.501 58.5s23.5 44.5 23.5 74.5
c0 42.667 -15.333 81.334 -46 116.001s-70.667 52 -120 52c-46 0 -84.5 -16.833 -115.5 -50.5s-46.5 -72.834 -46.5 -117.501c0 -25.333 8.83301 -49.5 26.5 -72.5s36.5 -42.833 56.5 -59.5c22 -18 40 -31.167 54 -39.5s23.667 -13.833 29 -16.5l30.5 17.5
c14.333 8.33301 31.166 20.833 50.499 37.5zM589.997 1024h-148v148h148v-148zM589.997 -319.001h-148v148h148v-148z" />
    <glyph glyph-name="uni06A3.fina" unicode="&#x6a3;" horiz-adv-x="1855" 
d="M1855 0l-163.003 0.00195312c-63.333 0 -126 8.83301 -188 26.5s-118.333 38.834 -169 63.501c-55.333 -26 -110.166 -47.5 -164.499 -64.5s-118.833 -25.5 -193.5 -25.5h-156c-243.333 0 -425.666 43.333 -546.999 130s-182 210.667 -182 372
c0 61.333 2.66699 108.666 8 141.999l9 56h163v-10c-1.33301 -6.66699 -4 -28.334 -8 -65.001s-6 -73.667 -6 -111c0 -47.333 9.5 -90.5 28.5 -129.5s50.833 -73.167 95.5 -102.5c48 -32 108.833 -55.667 182.5 -71s159.167 -23 256.5 -23h160c52 0 94.167 3.66699 126.5 11
l61.5 14l-30.5 19c-15 9.33301 -32.833 25 -53.5 47c-21.333 22 -40.666 49.667 -57.999 83s-26 71 -26 113c0 101.333 30.333 186.5 91 255.5s139.667 103.5 237 103.5c93.333 0 172 -34.333 236 -103s96 -153.334 96 -254.001c0 -42 -8.16699 -80.333 -24.5 -115
s-35.166 -63 -56.499 -85c-20.667 -22 -38.5 -38 -53.5 -48s-24.167 -16 -27.5 -18c11.333 -4 34.666 -8.83301 69.999 -14.5s75 -8.5 119 -8.5h167v-188zM1414 342.002c22.667 19.333 41.835 38.832 57.502 58.499s23.5 44.5 23.5 74.5
c0 42.667 -15.333 81.334 -46 116.001s-70.667 52 -120 52c-44.667 0 -82.834 -16.5 -114.501 -49.5s-47.5 -72.5 -47.5 -118.5c0 -25.333 8.83301 -49.5 26.5 -72.5s36.5 -42.833 56.5 -59.5c22 -18 40.167 -31.167 54.5 -39.5l28.5 -16.5c4 2 13.667 7.5 29 16.5
s32.666 21.833 51.999 38.5zM1399 1024h-148v148h148v-148zM924.998 -318.999h-148v148h148v-148z" />
    <glyph glyph-name="afii57505" unicode="&#x6a4;" horiz-adv-x="1782" arabic-form="isolated" 
d="M1696 467c0 -94.667 -22.334 -173.167 -67.001 -235.5s-105.667 -111.166 -183 -146.499c-75.333 -34 -165.5 -58.667 -270.5 -74s-221.833 -23 -350.5 -23c-245.333 0 -428.833 43.333 -550.5 130s-182.5 210.334 -182.5 371.001c0 52.667 2.66699 98.667 8 138
s8.33301 61.666 9 66.999h163v-10c-3.33301 -20.667 -6.5 -49.334 -9.5 -86.001s-4.5 -68.667 -4.5 -96c0 -47.333 9.5 -90.5 28.5 -129.5s51.5 -73.167 97.5 -102.5c48.667 -32 110 -55.667 184 -71s160.333 -23 259 -23c232 0 406.167 22.167 522.5 66.5
s174.5 113.166 174.5 206.499v12c-12 -7.33301 -34 -16 -66 -26s-62 -15 -90 -15c-112 0 -200.667 29.833 -266 89.5s-98 135.5 -98 227.5c0 96 32.667 182.5 98 259.5s138.333 115.5 219 115.5c112.667 0 203.334 -58.167 272.001 -174.5s103 -273.166 103 -470.499z
M1511 647c0 18.667 -3.99902 43.5 -11.999 74.5s-20.333 62.5 -37 94.5c-17.333 33.333 -36.833 59.666 -58.5 78.999s-45.167 29 -70.5 29c-48.667 0 -87 -19.333 -115 -58s-42 -79.667 -42 -123c0 -39.333 17.833 -71.666 53.5 -96.999s84.5 -38 146.5 -38
c25.333 0 50.666 4 75.999 12s45 17 59 27zM1143 1282h-148v148h148v-148zM1439 1282h-148v148h148v-148zM1291 1491h-148v148h148v-148z" />
    <glyph glyph-name="uni06A5.init" unicode="&#x6a5;" horiz-adv-x="840" 
d="M635 966c35.333 -52 63.332 -116.331 83.999 -192.998s31 -164.334 31 -263.001c0 -84.667 -18.167 -159.667 -54.5 -225s-82.5 -118.333 -138.5 -159c-56 -42 -117.667 -73.5 -185 -94.5s-133.333 -31.5 -198 -31.5h-244v188h246c45.333 0 92 6 140 18s91 29.667 129 53
c42.667 26 75.5 56.5 98.5 91.5s34.5 73.833 34.5 116.5c-17.333 -10 -41.333 -19.333 -72 -28s-58.667 -13 -84 -13c-59.333 0 -111.833 8.33301 -157.5 25s-84.5 40.667 -116.5 72c-30.667 30 -53.5 63.833 -68.5 101.5s-22.5 77.167 -22.5 118.5
c0 95.333 32.833 181.666 98.5 258.999s138.834 116 219.501 116c48.667 0 95.667 -13 141 -39s85 -63.667 119 -113zM564.999 653.002c0 18.667 -4.00195 43.501 -12.002 74.501s-20.333 62.5 -37 94.5c-17.333 33.333 -36.833 59.666 -58.5 78.999s-45.167 29 -70.5 29
c-42.667 0 -79.667 -18 -111 -54s-47 -78 -47 -126c0 -39.333 18.333 -71.833 55 -97.5s85.334 -38.5 146.001 -38.5c24 0 47.833 3.5 71.5 10.5s44.834 16.5 63.501 28.5zM236.997 -213.997h-148v148h148v-148zM532.997 -213.997h-148v148h148v-148zM384.997 -422.997h-148
v148h148v-148z" />
    <glyph glyph-name="uni06A5.medi" unicode="&#x6a5;" horiz-adv-x="1032" 
d="M1032 0l-164.003 -0.000976562c-63.333 0 -126 8.83301 -188 26.5s-118 38.834 -168 63.501c-55.333 -26 -110.166 -47.5 -164.499 -64.5s-118.833 -25.5 -193.5 -25.5h-224v188h228c52 0 94.5 3.83301 127.5 11.5s53.167 12.167 60.5 13.5
c-4.66699 2.66699 -14.667 8.83398 -30 18.501s-33.333 25.5 -54 47.5c-21.333 22 -40.666 49.667 -57.999 83s-26 71 -26 113c0 102 30.5 187.333 91.5 256s139.833 103 236.5 103c92 0 170.333 -34 235 -102s97 -153 97 -255c0 -42 -8.16699 -80.333 -24.5 -115
s-35.166 -63 -56.499 -85c-20.667 -22 -38 -37.833 -52 -47.5s-23.667 -15.834 -29 -18.501c12 -4.66699 37.167 -9.66699 75.5 -15s75.833 -8 112.5 -8h168v-188zM590.997 341.999c22.667 19.333 41.834 38.833 57.501 58.5s23.5 44.5 23.5 74.5
c0 42.667 -15.333 81.334 -46 116.001s-70.667 52 -120 52c-46 0 -84.5 -16.833 -115.5 -50.5s-46.5 -72.834 -46.5 -117.501c0 -25.333 8.83301 -49.5 26.5 -72.5s36.5 -42.833 56.5 -59.5c22 -18 40 -31.167 54 -39.5s23.667 -13.833 29 -16.5l30.5 17.5
c14.333 8.33301 31.166 20.833 50.499 37.5zM441.997 -214.001h-148v148h148v-148zM737.997 -214.001h-148v148h148v-148zM589.997 -423.001h-148v148h148v-148z" />
    <glyph glyph-name="uni06A5.fina" unicode="&#x6a5;" horiz-adv-x="1855" 
d="M1855 0l-163.003 0.00195312c-63.333 0 -126 8.83301 -188 26.5s-118.333 38.834 -169 63.501c-55.333 -26 -110.166 -47.5 -164.499 -64.5s-118.833 -25.5 -193.5 -25.5h-156c-243.333 0 -425.666 43.333 -546.999 130s-182 210.667 -182 372
c0 61.333 2.66699 108.666 8 141.999l9 56h163v-10c-1.33301 -6.66699 -4 -28.334 -8 -65.001s-6 -73.667 -6 -111c0 -47.333 9.5 -90.5 28.5 -129.5s50.833 -73.167 95.5 -102.5c48 -32 108.833 -55.667 182.5 -71s159.167 -23 256.5 -23h160c52 0 94.167 3.66699 126.5 11
l61.5 14l-30.5 19c-15 9.33301 -32.833 25 -53.5 47c-21.333 22 -40.666 49.667 -57.999 83s-26 71 -26 113c0 101.333 30.333 186.5 91 255.5s139.667 103.5 237 103.5c93.333 0 172 -34.333 236 -103s96 -153.334 96 -254.001c0 -42 -8.16699 -80.333 -24.5 -115
s-35.166 -63 -56.499 -85c-20.667 -22 -38.5 -38 -53.5 -48s-24.167 -16 -27.5 -18c11.333 -4 34.666 -8.83301 69.999 -14.5s75 -8.5 119 -8.5h167v-188zM1414 342.002c22.667 19.333 41.835 38.832 57.502 58.499s23.5 44.5 23.5 74.5
c0 42.667 -15.333 81.334 -46 116.001s-70.667 52 -120 52c-44.667 0 -82.834 -16.5 -114.501 -49.5s-47.5 -72.5 -47.5 -118.5c0 -25.333 8.83301 -49.5 26.5 -72.5s36.5 -42.833 56.5 -59.5c22 -18 40.167 -31.167 54.5 -39.5l28.5 -16.5c4 2 13.667 7.5 29 16.5
s32.666 21.833 51.999 38.5zM1237 -213.999h-148v148h148v-148zM1533 -213.999h-148v148h148v-148zM1385 -422.999h-148v148h148v-148z" />
    <glyph glyph-name="uni06A6" unicode="&#x6a6;" horiz-adv-x="1782" arabic-form="isolated" 
d="M1696 467c0 -94.667 -22.334 -173.167 -67.001 -235.5s-105.667 -111.166 -183 -146.499c-75.333 -34 -165.5 -58.667 -270.5 -74s-221.833 -23 -350.5 -23c-245.333 0 -428.833 43.333 -550.5 130s-182.5 210.334 -182.5 371.001c0 52.667 2.66699 98.667 8 138
s8.33301 61.666 9 66.999h163v-10c-3.33301 -20.667 -6.5 -49.334 -9.5 -86.001s-4.5 -68.667 -4.5 -96c0 -47.333 9.5 -90.5 28.5 -129.5s51.5 -73.167 97.5 -102.5c48.667 -32 110 -55.667 184 -71s160.333 -23 259 -23c232 0 406.167 22.167 522.5 66.5
s174.5 113.166 174.5 206.499v12c-12 -7.33301 -34 -16 -66 -26s-62 -15 -90 -15c-112 0 -200.667 29.833 -266 89.5s-98 135.5 -98 227.5c0 96 32.667 182.5 98 259.5s138.333 115.5 219 115.5c112.667 0 203.334 -58.167 272.001 -174.5s103 -273.166 103 -470.499z
M1511 647c0 18.667 -3.99902 43.5 -11.999 74.5s-20.333 62.5 -37 94.5c-17.333 33.333 -36.833 59.666 -58.5 78.999s-45.167 29 -70.5 29c-48.667 0 -87 -19.333 -115 -58s-42 -79.667 -42 -123c0 -39.333 17.833 -71.666 53.5 -96.999s84.5 -38 146.5 -38
c25.333 0 50.666 4 75.999 12s45 17 59 27zM1398 1528h-148v148h148v-148zM1398 1319h-148v148h148v-148zM1130 1528h-148v148h148v-148zM1130 1319h-148v148h148v-148z" />
    <glyph glyph-name="uni06A7.fina" unicode="&#x6a7;" horiz-adv-x="1821" 
d="M1821 0l-124.999 -0.00292969c-12 -88 -40.333 -159.833 -85 -215.5s-105 -99.167 -181 -130.5c-74.667 -30 -162 -50.5 -262 -61.5s-214.333 -16.5 -343 -16.5c-245.333 0 -428.833 43.333 -550.5 130s-182.5 210.667 -182.5 372c0 66.667 2.5 115.834 7.5 147.501
s8.16699 50.834 9.5 57.501h163v-11c-2 -12 -4.83301 -37 -8.5 -75s-5.5 -73.667 -5.5 -107c0 -46 9.83301 -89 29.5 -129s51.834 -74.333 96.501 -103c48.667 -32 110 -55.667 184 -71s160.333 -23 259 -23c243.333 0 416.666 18.5 519.999 55.5
s161.666 97.167 174.999 180.5h-58c-54 0 -108.5 5.5 -163.5 16.5s-104.5 29.5 -148.5 55.5s-79.667 60.5 -107 103.5s-41 96.5 -41 160.5c0 96.667 32.833 183.334 98.5 260.001s138.5 115 218.5 115c97.333 0 180.333 -50.167 249 -150.5s108 -224.5 118 -372.5h133v-188z
M1304 212.997c35.333 -10 71.167 -16.667 107.5 -20s70.166 -5 101.499 -5c-9.33301 104 -31.166 185.667 -65.499 245s-72.5 89 -114.5 89c-48 0 -86.167 -18.667 -114.5 -56s-42.5 -78.666 -42.5 -123.999c0 -34.667 12.667 -62.334 38 -83.001s55.333 -36 90 -46z
M1349 968.997h-148v148h148v-148z" />
    <glyph glyph-name="uni06A8.fina" unicode="&#x6a8;" horiz-adv-x="1821" 
d="M1821 0l-124.999 -0.00292969c-12 -88 -40.333 -159.833 -85 -215.5s-105 -99.167 -181 -130.5c-74.667 -30 -162 -50.5 -262 -61.5s-214.333 -16.5 -343 -16.5c-245.333 0 -428.833 43.333 -550.5 130s-182.5 210.667 -182.5 372c0 66.667 2.5 115.834 7.5 147.501
s8.16699 50.834 9.5 57.501h163v-11c-2 -12 -4.83301 -37 -8.5 -75s-5.5 -73.667 -5.5 -107c0 -46 9.83301 -89 29.5 -129s51.834 -74.333 96.501 -103c48.667 -32 110 -55.667 184 -71s160.333 -23 259 -23c243.333 0 416.666 18.5 519.999 55.5
s161.666 97.167 174.999 180.5h-58c-54 0 -108.5 5.5 -163.5 16.5s-104.5 29.5 -148.5 55.5s-79.667 60.5 -107 103.5s-41 96.5 -41 160.5c0 96.667 32.833 183.334 98.5 260.001s138.5 115 218.5 115c97.333 0 180.333 -50.167 249 -150.5s108 -224.5 118 -372.5h133v-188z
M1304 212.997c35.333 -10 71.167 -16.667 107.5 -20s70.166 -5 101.499 -5c-9.33301 104 -31.166 185.667 -65.499 245s-72.5 89 -114.5 89c-48 0 -86.167 -18.667 -114.5 -56s-42.5 -78.666 -42.5 -123.999c0 -34.667 12.667 -62.334 38 -83.001s55.333 -36 90 -46z
M1201 968.997h-148v148h148v-148zM1497 968.997h-148v148h148v-148zM1349 1178h-148v148h148v-148z" />
    <glyph glyph-name="afii57567" unicode="&#x6a9;" horiz-adv-x="1892" arabic-form="isolated" 
d="M1278 188c81.333 0 138.834 14.8311 172.501 44.498s50.5 66.167 50.5 109.5c0 30 -13.833 64.833 -41.5 104.5s-81.5 92.167 -161.5 157.5l-274 225c-30.667 26 -57.5 52.5 -80.5 79.5s-34.5 56.5 -34.5 88.5c0 40.667 13.5 76.834 40.5 108.501
s87.167 70.167 180.5 115.5l642 309v-197l-560 -268c-21.333 -10 -45.333 -22.5 -72 -37.5s-40 -27.833 -40 -38.5c0 -12 14 -29.833 42 -53.5l81 -67.5l266 -219c64 -52.667 109.667 -103.834 137 -153.501s41 -100.167 41 -151.5c0 -46 -7.66699 -90.667 -23 -134
s-38 -79.666 -68 -108.999c-34 -33.333 -75.833 -58.5 -125.5 -75.5s-106.5 -25.5 -170.5 -25.5h-461c-244 0 -426.167 43.333 -546.5 130s-180.5 210.667 -180.5 372c0 52 3.16699 95.833 9.5 131.5s10.166 57.834 11.499 66.501h172v-10c-4 -14.667 -9.5 -41 -16.5 -79
s-10.5 -70.333 -10.5 -97c0 -47.333 9.5 -90.5 28.5 -129.5s51.167 -73.167 96.5 -102.5c44.667 -30 101.5 -53.167 170.5 -69.5s157.5 -24.5 265.5 -24.5h459z" />
    <glyph glyph-name="uni06AA.init" unicode="&#x6aa;" horiz-adv-x="2222" 
d="M2059 219c0 -65.333 -36.667 -117.669 -110 -157.002c-78 -41.333 -188.333 -62 -331 -62h-1688v188h1750c54 0 97.333 7 130 21c28.667 12.667 43 27.667 43 45c0 38 -53.333 62 -160 72l-893 86c-56.667 5.33301 -105.334 24.666 -146.001 57.999
c-48.667 40.667 -73 94.334 -73 161.001c0 72.667 72.333 152.334 217 239.001l504 301v-197l-422 -250c-72 -42.667 -108 -78.667 -108 -108c0 -35.333 37.333 -56.666 112 -63.999l884 -83c74.667 -6.66699 138.334 -28.667 191.001 -66c66.667 -46 100 -107.333 100 -184
z" />
    <glyph glyph-name="uni06AA.medi" unicode="&#x6aa;" horiz-adv-x="2222" 
d="M2222 0l-118.001 -0.00195312c-91.333 0 -170.666 24.333 -237.999 73c-72.667 -48.667 -195.334 -73 -368.001 -73h-1568v188h1630c54 0 97.333 7 130 21c28.667 12.667 43 27.667 43 45c0 36 -53.333 60 -160 72l-773 86c-57.333 6.66699 -106 26.334 -146 59.001
c-48.667 40 -73 93.333 -73 160c0 72.667 72.333 152.334 217 239.001l504 301v-197l-422 -250c-72 -42.667 -108 -78.667 -108 -108c0 -34.667 37.333 -56 112 -64l764 -83c66.667 -7.33301 125.334 -26 176.001 -56c62.667 -38 99.667 -88 111 -150
c3.33301 -20 21.5 -37.5 54.5 -52.5s69.833 -22.5 110.5 -22.5h122v-188z" />
    <glyph glyph-name="uni06AA.fina" unicode="&#x6aa;" horiz-adv-x="2222" 
d="M2222 0l-118.001 -0.00195312c-91.333 0 -170.666 24.333 -237.999 73c-72.667 -48.667 -195.334 -73 -368.001 -73h-679c-484.667 0 -727 167.333 -727 502c0 41.333 7 107.333 21 198h172v-10c-18 -66 -27 -124.667 -27 -176c0 -217.333 187 -326 561 -326h741
c54 0 97.333 7 130 21c28.667 12.667 43 27.667 43 45c0 36 -53.333 60 -160 72l-773 86c-57.333 6.66699 -106 26.334 -146 59.001c-48.667 40 -73 93.333 -73 160c0 72.667 72.333 152.334 217 239.001l504 301v-197l-422 -250c-72 -42.667 -108 -78.667 -108 -108
c0 -34.667 37.333 -56 112 -64l764 -83c66.667 -7.33301 125.334 -26 176.001 -56c62.667 -38 99.667 -88 111 -150c3.33301 -20 21.5 -37.5 54.5 -52.5s69.833 -22.5 110.5 -22.5h122v-188z" />
    <glyph glyph-name="uni06AB.init" unicode="&#x6ab;" horiz-adv-x="983" 
d="M862 1333l-559 -268c-21.333 -10 -45.5 -22.5 -72.5 -37.5s-40.5 -27.833 -40.5 -38.5s12.5 -27 37.5 -49l85.5 -72l267 -219c64 -52.667 109.667 -103.834 137 -153.501s41 -100.167 41 -151.5c0 -46 -7.66699 -90.667 -23 -134s-38 -79.666 -68 -108.999
c-34 -33.333 -75.833 -58.5 -125.5 -75.5s-106.5 -25.5 -170.5 -25.5h-441v188h439c74 0 129.667 13.5 167 40.5s56 64.833 56 113.5c0 30 -13.833 64.833 -41.5 104.5s-81.5 92.167 -161.5 157.5l-274 225c-31.333 26 -58.333 52.5 -81 79.5s-34 56.5 -34 88.5
c-0 46.667 18.833 87 56.5 121s92.5 68.333 164.5 103l641 309v-197zM857 1134c0 -52.667 -18.668 -97.333 -56.001 -134s-81.666 -55 -132.999 -55c-52 0 -96.333 18.5 -133 55.5s-55 81.5 -55 133.5c0 51.333 18.5 95.5 55.5 132.5s81.167 55.5 132.5 55.5
c52 0 96.5 -18.333 133.5 -55s55.5 -81 55.5 -133zM764.999 1133c0 26.667 -9.33105 49.334 -27.998 68.001s-41.667 28 -69 28c-26.667 0 -49.334 -9.33301 -68.001 -28s-28 -41.334 -28 -68.001c0 -25.333 9.66699 -47.333 29 -66s41.666 -28 66.999 -28
c26 0 48.667 9.33301 68 28s29 40.667 29 66z" />
    <glyph glyph-name="uni06AB.medi" unicode="&#x6ab;" horiz-adv-x="1090" 
d="M1090 0l-117.002 -0.00195312c-52.667 0 -104 9.5 -154 28.5s-91.667 45.833 -125 80.5c-34 -37.333 -76.167 -64.833 -126.5 -82.5s-109.166 -26.5 -176.499 -26.5h-461v188h459c74.667 0 130.5 13.5 167.5 40.5s55.5 64.833 55.5 113.5
c0 28.667 -18 63.834 -54 105.501s-92.333 93.834 -169 156.501l-274 225c-31.333 26 -58.333 52.5 -81 79.5s-34 56.5 -34 88.5c0 48.667 20.5 90.5 61.5 125.5s94.167 67.833 159.5 98.5l641 309v-197l-559 -268c-21.333 -10 -45.5 -22.5 -72.5 -37.5
s-40.5 -27.833 -40.5 -38.5s12.5 -27 37.5 -49l85.5 -72l267 -219c74.667 -62 126.334 -115.667 155.001 -161s43 -93.333 43 -144v-14c0 -43.333 17.833 -77.833 53.5 -103.5s81.5 -38.5 137.5 -38.5h121v-188zM856.998 1134c0 -52.667 -18.668 -97.333 -56.001 -134
s-81.666 -55 -132.999 -55c-52 0 -96.333 18.5 -133 55.5s-55 81.5 -55 133.5c0 51.333 18.5 95.5 55.5 132.5s81.167 55.5 132.5 55.5c52 0 96.5 -18.333 133.5 -55s55.5 -81 55.5 -133zM764.997 1133c0 26.667 -9.33105 49.334 -27.998 68.001s-41.667 28 -69 28
c-26.667 0 -49.334 -9.33301 -68.001 -28s-28 -41.334 -28 -68.001c0 -25.333 9.66699 -47.333 29 -66s41.666 -28 66.999 -28c26 0 48.667 9.33301 68 28s29 40.667 29 66z" />
    <glyph glyph-name="uni06AB.fina" unicode="&#x6ab;" horiz-adv-x="1982" 
d="M1982 0l-118 -0.00488281c-52.667 0 -104 9.5 -154 28.5s-91.667 45.833 -125 80.5c-34 -37.333 -76.167 -64.833 -126.5 -82.5s-109.166 -26.5 -176.499 -26.5h-463c-244 0 -426.167 43.333 -546.5 130s-180.5 210.667 -180.5 372c0 52 3.16699 95.833 9.5 131.5
s10.166 57.834 11.499 66.501h172v-10c-4 -14.667 -9.5 -41 -16.5 -79s-10.5 -70.333 -10.5 -97c0 -47.333 9.5 -90.5 28.5 -129.5s51.167 -73.167 96.5 -102.5c44.667 -30 101.5 -53.167 170.5 -69.5s157.5 -24.5 265.5 -24.5h461c75.333 0 131.333 13.833 168 41.5
s55 65.167 55 112.5c0 28.667 -18.167 63.834 -54.5 105.501s-92.5 93.834 -168.5 156.501l-274 225c-31.333 26 -58.333 52.5 -81 79.5s-34 56.5 -34 88.5c0 42.667 17.667 81.5 53 116.5s91.333 70.833 168 107.5l641 309v-197l-559 -268
c-21.333 -10 -45.5 -22.5 -72.5 -37.5s-40.5 -27.833 -40.5 -38.5s12.5 -27 37.5 -49l85.5 -72l266 -219c72.667 -59.333 124 -112.166 154 -158.499s45 -95.166 45 -146.499v-6.5v-7.5c0 -43.333 17.833 -77.833 53.5 -103.5s81.5 -38.5 137.5 -38.5h122v-188zM1717 1119
c0 -52.667 -18.668 -97.333 -56.001 -134s-81.666 -55 -132.999 -55c-52 0 -96.333 18.5 -133 55.5s-55 81.5 -55 133.5c0 51.333 18.5 95.5 55.5 132.5s81.167 55.5 132.5 55.5c52 0 96.5 -18.333 133.5 -55s55.5 -81 55.5 -133zM1625 1118
c0 26.667 -9.33105 49.334 -27.998 68.001s-41.667 28 -69 28c-26.667 0 -49.334 -9.33301 -68.001 -28s-28 -41.334 -28 -68.001c0 -25.333 9.66699 -47.333 29 -66s41.666 -28 66.999 -28c26 0 48.667 9.33301 68 28s29 40.667 29 66z" />
    <glyph glyph-name="uni06AD" unicode="&#x6ad;" horiz-adv-x="1485" arabic-form="isolated" 
d="M1362 453c0 -148 -34.333 -260.502 -103 -337.502s-160.667 -115.5 -276 -115.5h-514c-49.333 0 -97.333 4 -144 12s-87 23 -121 45c-34.667 22.667 -62 54.334 -82 95.001s-30 93 -30 157c0 26 1.16699 51.167 3.5 75.5s3.83301 39.5 4.5 45.5h168v-10
c-0.666992 -5.33301 -2.5 -17.166 -5.5 -35.499s-4.5 -42.833 -4.5 -73.5c0 -46 19 -78 57 -96s89.333 -27 154 -27h518c39.333 0 73 8.16699 101 24.5s49.667 37.5 65 63.5c14.667 24 25.5 52 32.5 84s10.5 67 10.5 105v1091h166v-1103zM924 734.998
c0 -56.667 -33.668 -101.833 -101.001 -135.5s-154.666 -50.5 -261.999 -50.5v94c77.333 0 141.666 7 192.999 21s77 34.333 77 61c0 12 -6.5 22 -19.5 30s-31.5 15 -55.5 21l-76 19c-35.333 8 -63.666 23 -84.999 45s-32 51.333 -32 88c0 46.667 23.167 84.5 69.5 113.5
s113.5 43.5 201.5 43.5v-90c-62 0 -108 -5.83301 -138 -17.5s-45 -27.5 -45 -47.5c0 -12 6.66699 -22.5 20 -31.5s32 -16.167 56 -21.5l84 -21c30 -6.66699 56.333 -19 79 -37s34 -46 34 -84zM636.999 1400h-148v148h148v-148zM932.999 1400h-148v148h148v-148z
M784.999 1609h-148v148h148v-148z" />
    <glyph glyph-name="uni06AE.init" unicode="&#x6ae;" horiz-adv-x="983" 
d="M862 1333l-559 -268c-21.333 -10 -45.5 -22.5 -72.5 -37.5s-40.5 -27.833 -40.5 -38.5s12.5 -27 37.5 -49l85.5 -72l267 -219c64 -52.667 109.667 -103.834 137 -153.501s41 -100.167 41 -151.5c0 -46 -7.66699 -90.667 -23 -134s-38 -79.666 -68 -108.999
c-34 -33.333 -75.833 -58.5 -125.5 -75.5s-106.5 -25.5 -170.5 -25.5h-441v188h439c74 0 129.667 13.5 167 40.5s56 64.833 56 113.5c0 30 -13.833 64.833 -41.5 104.5s-81.5 92.167 -161.5 157.5l-274 225c-31.333 26 -58.333 52.5 -81 79.5s-34 56.5 -34 88.5
c-0 46.667 18.833 87 56.5 121s92.5 68.333 164.5 103l641 309v-197zM197 -214h-148v148h148v-148zM493 -214h-148v148h148v-148zM345 -423h-148v148h148v-148z" />
    <glyph glyph-name="uni06AE.medi" unicode="&#x6ae;" horiz-adv-x="1090" 
d="M1090 0l-117.002 -0.00195312c-52.667 0 -104 9.5 -154 28.5s-91.667 45.833 -125 80.5c-34 -37.333 -76.167 -64.833 -126.5 -82.5s-109.166 -26.5 -176.499 -26.5h-461v188h459c74.667 0 130.5 13.5 167.5 40.5s55.5 64.833 55.5 113.5
c0 28.667 -18 63.834 -54 105.501s-92.333 93.834 -169 156.501l-274 225c-31.333 26 -58.333 52.5 -81 79.5s-34 56.5 -34 88.5c0 48.667 20.5 90.5 61.5 125.5s94.167 67.833 159.5 98.5l641 309v-197l-559 -268c-21.333 -10 -45.5 -22.5 -72.5 -37.5
s-40.5 -27.833 -40.5 -38.5s12.5 -27 37.5 -49l85.5 -72l267 -219c74.667 -62 126.334 -115.667 155.001 -161s43 -93.333 43 -144v-14c0 -43.333 17.833 -77.833 53.5 -103.5s81.5 -38.5 137.5 -38.5h121v-188zM196.998 -214.002h-148v148h148v-148zM492.998 -214.002h-148
v148h148v-148zM344.998 -423.002h-148v148h148v-148z" />
    <glyph glyph-name="uni06AE.fina" unicode="&#x6ae;" horiz-adv-x="1638" 
d="M1638 0l-116.002 -0.000976562c-40.667 0 -87.167 12.667 -139.5 38s-89.833 56.333 -112.5 93c-33.333 -42.667 -73.166 -75.167 -119.499 -97.5s-102.166 -33.5 -167.499 -33.5h-514c-49.333 0 -97.333 4 -144 12s-87 23 -121 45c-34.667 22.667 -62 54.334 -82 95.001
s-30 93 -30 157c0 26 1.16699 51.333 3.5 76s3.83301 39.667 4.5 45h168v-10c-1.33301 -10 -3.33301 -23 -6 -39s-4 -39.333 -4 -70c0 -46 18.833 -78 56.5 -96s89.167 -27 154.5 -27h518c39.333 0 73 8.16699 101 24.5s49.667 37.5 65 63.5c14.667 24 25.5 52 32.5 84
s10.5 67 10.5 105v1091h166v-1097c0 -80 20.333 -145.167 61 -195.5s88.667 -75.5 144 -75.5h71v-188zM923.998 734.999c0 -56.667 -33.668 -101.833 -101.001 -135.5s-154.666 -50.5 -261.999 -50.5v94c77.333 0 141.666 7 192.999 21s77 34.333 77 61
c0 12 -6.5 22 -19.5 30s-31.5 15 -55.5 21l-76 19c-35.333 8 -63.666 23 -84.999 45s-32 51.333 -32 88c0 46.667 23.167 84.5 69.5 113.5s113.5 43.5 201.5 43.5v-90c-62 0 -108 -5.83301 -138 -17.5s-45 -27.5 -45 -47.5c0 -12 6.66699 -22.5 20 -31.5
s32 -16.167 56 -21.5l84 -21c30 -6.66699 56.333 -19 79 -37s34 -46 34 -84zM636.997 -214h-148v148h148v-148zM932.997 -214h-148v148h148v-148zM784.997 -423h-148v148h148v-148z" />
    <glyph glyph-name="afii57509" unicode="&#x6af;" horiz-adv-x="1892" arabic-form="isolated" 
d="M1278 188c81.333 0 138.834 14.8311 172.501 44.498s50.5 66.167 50.5 109.5c0 30 -13.833 64.833 -41.5 104.5s-81.5 92.167 -161.5 157.5l-274 225c-30.667 26 -57.5 52.5 -80.5 79.5s-34.5 56.5 -34.5 88.5c0 40.667 13.5 76.834 40.5 108.501
s87.167 70.167 180.5 115.5l642 309v-197l-560 -268c-21.333 -10 -45.333 -22.5 -72 -37.5s-40 -27.833 -40 -38.5c0 -12 14 -29.833 42 -53.5l81 -67.5l266 -219c64 -52.667 109.667 -103.834 137 -153.501s41 -100.167 41 -151.5c0 -46 -7.66699 -90.667 -23 -134
s-38 -79.666 -68 -108.999c-34 -33.333 -75.833 -58.5 -125.5 -75.5s-106.5 -25.5 -170.5 -25.5h-461c-244 0 -426.167 43.333 -546.5 130s-180.5 210.667 -180.5 372c0 52 3.16699 95.833 9.5 131.5s10.166 57.834 11.499 66.501h172v-10c-4 -14.667 -9.5 -41 -16.5 -79
s-10.5 -70.333 -10.5 -97c0 -47.333 9.5 -90.5 28.5 -129.5s51.167 -73.167 96.5 -102.5c44.667 -30 101.5 -53.167 170.5 -69.5s157.5 -24.5 265.5 -24.5h459zM1733 1630l-811 -405v100l811 406v-101z" />
    <glyph glyph-name="uni06B0.init" unicode="&#x6b0;" horiz-adv-x="983" 
d="M862 1333l-560 -267.999c-21.333 -10 -45.333 -22.5 -72 -37.5s-40 -27.833 -40 -38.5c0 -12 14 -29.833 42 -53.5l81 -67.5l266 -219c64 -52.667 109.667 -103.834 137 -153.501s41 -100.167 41 -151.5c0 -46 -7.66699 -90.667 -23 -134s-38 -79.666 -68 -108.999
c-34 -33.333 -75.833 -58.5 -125.5 -75.5s-106.5 -25.5 -170.5 -25.5h-440v188h438c81.333 0 138.833 14.833 172.5 44.5s50.5 66.167 50.5 109.5c0 30 -14 64.833 -42 104.5s-81.667 92.167 -161 157.5l-274 225c-30.667 25.333 -57.5 51.666 -80.5 78.999
s-34.5 57 -34.5 89c0 40.667 13.5 77 40.5 109s87.167 70.333 180.5 115l642 309v-197zM823 1630l-811 -405v100l811 406v-101zM857 1134c0 -52.667 -18.668 -97.333 -56.001 -134s-81.666 -55 -132.999 -55c-52 0 -96.333 18.5 -133 55.5s-55 81.5 -55 133.5
c0 51.333 18.5 95.5 55.5 132.5s81.167 55.5 132.5 55.5c52 0 96.5 -18.333 133.5 -55s55.5 -81 55.5 -133zM764.999 1133c0 26.667 -9.33105 49.334 -27.998 68.001s-41.667 28 -69 28c-26.667 0 -49.334 -9.33301 -68.001 -28s-28 -41.334 -28 -68.001
c0 -25.333 9.66699 -47.333 29 -66s41.666 -28 66.999 -28c26 0 48.667 9.33301 68 28s29 40.667 29 66z" />
    <glyph glyph-name="uni06B0.medi" unicode="&#x6b0;" horiz-adv-x="1090" 
d="M1090 0l-117.001 -0.00390625c-52.667 0 -104 9.5 -154 28.5s-91.667 45.833 -125 80.5c-34 -37.333 -76.167 -64.833 -126.5 -82.5s-109.166 -26.5 -176.499 -26.5h-461v188h459c74 0 129.667 13.5 167 40.5s56 64.833 56 113.5c0 28.667 -18.167 63.834 -54.5 105.501
s-92.5 93.834 -168.5 156.501l-274 225c-31.333 26 -58.333 52.5 -81 79.5s-34 56.5 -34 88.5c-0 46 18.333 86 55 120s92 68.667 166 104l641 309v-197l-559 -268c-21.333 -10 -45.5 -22.5 -72.5 -37.5s-40.5 -27.833 -40.5 -38.5s12.5 -27 37.5 -49l85.5 -72l266 -219
c72.667 -59.333 124 -112.166 154 -158.499s45 -95.166 45 -146.499v-6.5v-7.5c0 -43.333 17.833 -77.833 53.5 -103.5s81.5 -38.5 137.5 -38.5h121v-188zM841.999 1630l-811 -405v100l811 406v-101zM856.999 1134c0 -52.667 -18.668 -97.333 -56.001 -134
s-81.666 -55 -132.999 -55c-52 0 -96.333 18.5 -133 55.5s-55 81.5 -55 133.5c0 51.333 18.5 95.5 55.5 132.5s81.167 55.5 132.5 55.5c52 0 96.5 -18.333 133.5 -55s55.5 -81 55.5 -133zM764.998 1133c0 26.667 -9.33105 49.334 -27.998 68.001s-41.667 28 -69 28
c-26.667 0 -49.334 -9.33301 -68.001 -28s-28 -41.334 -28 -68.001c0 -25.333 9.66699 -47.333 29 -66s41.666 -28 66.999 -28c26 0 48.667 9.33301 68 28s29 40.667 29 66z" />
    <glyph glyph-name="uni06B0.fina" unicode="&#x6b0;" horiz-adv-x="1982" 
d="M1982 0l-118 -0.00488281c-52.667 0 -104 9.5 -154 28.5s-91.667 45.833 -125 80.5c-34 -37.333 -76.167 -64.833 -126.5 -82.5s-109.166 -26.5 -176.499 -26.5h-463c-244 0 -426.167 43.333 -546.5 130s-180.5 210.667 -180.5 372c0 52 3.16699 95.833 9.5 131.5
s10.166 57.834 11.499 66.501h172v-10c-4 -14.667 -9.5 -41 -16.5 -79s-10.5 -70.333 -10.5 -97c0 -47.333 9.5 -90.5 28.5 -129.5s51.167 -73.167 96.5 -102.5c44.667 -30 101.5 -53.167 170.5 -69.5s157.5 -24.5 265.5 -24.5h461c74 0 129.667 13.5 167 40.5
s56 64.833 56 113.5c0 28.667 -18.167 63.834 -54.5 105.501s-92.5 93.834 -168.5 156.501l-274 225c-31.333 26 -58.333 52.5 -81 79.5s-34 56.5 -34 88.5c0 46 18.333 86 55 120s92 68.667 166 104l641 309v-197l-559 -268c-21.333 -10 -45.5 -22.5 -72.5 -37.5
s-40.5 -27.833 -40.5 -38.5s12.5 -27 37.5 -49l85.5 -72l266 -219c72.667 -59.333 124 -112.166 154 -158.499s45 -95.166 45 -146.499v-6.5v-7.5c0 -43.333 17.833 -77.833 53.5 -103.5s81.5 -38.5 137.5 -38.5h122v-188zM1733 1630l-811 -405v100l811 406v-101zM1737 1124
c0 -52.667 -18.668 -97.333 -56.001 -134s-81.666 -55 -132.999 -55c-52 0 -96.333 18.5 -133 55.5s-55 81.5 -55 133.5c0 51.333 18.5 95.5 55.5 132.5s81.167 55.5 132.5 55.5c52 0 96.5 -18.333 133.5 -55s55.5 -81 55.5 -133zM1645 1123
c0 26.667 -9.33105 49.334 -27.998 68.001s-41.667 28 -69 28c-26.667 0 -49.334 -9.33301 -68.001 -28s-28 -41.334 -28 -68.001c0 -25.333 9.66699 -47.333 29 -66s41.666 -28 66.999 -28c26 0 48.667 9.33301 68 28s29 40.667 29 66z" />
    <glyph glyph-name="uni06B1" unicode="&#x6b1;" horiz-adv-x="1892" arabic-form="isolated" 
d="M1278 188c81.333 0 138.834 14.8311 172.501 44.498s50.5 66.167 50.5 109.5c0 30 -13.833 64.833 -41.5 104.5s-81.5 92.167 -161.5 157.5l-274 225c-30.667 26 -57.5 52.5 -80.5 79.5s-34.5 56.5 -34.5 88.5c0 40.667 13.5 76.834 40.5 108.501
s87.167 70.167 180.5 115.5l642 309v-197l-560 -268c-21.333 -10 -45.333 -22.5 -72 -37.5s-40 -27.833 -40 -38.5c0 -12 14 -29.833 42 -53.5l81 -67.5l266 -219c64 -52.667 109.667 -103.834 137 -153.501s41 -100.167 41 -151.5c0 -46 -7.66699 -90.667 -23 -134
s-38 -79.666 -68 -108.999c-34 -33.333 -75.833 -58.5 -125.5 -75.5s-106.5 -25.5 -170.5 -25.5h-461c-244 0 -426.167 43.333 -546.5 130s-180.5 210.667 -180.5 372c0 52 3.16699 95.833 9.5 131.5s10.166 57.834 11.499 66.501h172v-10c-4 -14.667 -9.5 -41 -16.5 -79
s-10.5 -70.333 -10.5 -97c0 -47.333 9.5 -90.5 28.5 -129.5s51.167 -73.167 96.5 -102.5c44.667 -30 101.5 -53.167 170.5 -69.5s157.5 -24.5 265.5 -24.5h459zM1733 1630l-811 -405v100l811 406v-101zM1051 1583h-148v148h148v-148zM1319 1583h-148v148h148v-148z" />
    <glyph glyph-name="uni06B2.init" unicode="&#x6b2;" horiz-adv-x="983" 
d="M862 1333l-560 -267.999c-21.333 -10 -45.333 -22.5 -72 -37.5s-40 -27.833 -40 -38.5c0 -12 14 -29.833 42 -53.5l81 -67.5l266 -219c64 -52.667 109.667 -103.834 137 -153.501s41 -100.167 41 -151.5c0 -46 -7.66699 -90.667 -23 -134s-38 -79.666 -68 -108.999
c-34 -33.333 -75.833 -58.5 -125.5 -75.5s-106.5 -25.5 -170.5 -25.5h-440v188h438c81.333 0 138.833 14.833 172.5 44.5s50.5 66.167 50.5 109.5c0 30 -14 64.833 -42 104.5s-81.667 92.167 -161 157.5l-274 225c-30.667 25.333 -57.5 51.666 -80.5 78.999
s-34.5 57 -34.5 89c0 40.667 13.5 77 40.5 109s87.167 70.333 180.5 115l642 309v-197zM823 1630l-811 -405v100l811 406v-101zM191 -318.999h-148v148h148v-148zM459 -318.999h-148v148h148v-148z" />
    <glyph glyph-name="uni06B2.medi" unicode="&#x6b2;" horiz-adv-x="1090" 
d="M1090 0l-117.001 -0.00390625c-52.667 0 -104 9.5 -154 28.5s-91.667 45.833 -125 80.5c-34 -37.333 -76.167 -64.833 -126.5 -82.5s-109.166 -26.5 -176.499 -26.5h-461v188h459c74 0 129.667 13.5 167 40.5s56 64.833 56 113.5c0 28.667 -18.167 63.834 -54.5 105.501
s-92.5 93.834 -168.5 156.501l-274 225c-31.333 26 -58.333 52.5 -81 79.5s-34 56.5 -34 88.5c-0 46 18.333 86 55 120s92 68.667 166 104l641 309v-197l-559 -268c-21.333 -10 -45.5 -22.5 -72.5 -37.5s-40.5 -27.833 -40.5 -38.5s12.5 -27 37.5 -49l85.5 -72l266 -219
c72.667 -59.333 124 -112.166 154 -158.499s45 -95.166 45 -146.499v-6.5v-7.5c0 -43.333 17.833 -77.833 53.5 -103.5s81.5 -38.5 137.5 -38.5h121v-188zM841.999 1630l-811 -405v100l811 406v-101zM190.999 -319.004h-148v148h148v-148zM458.999 -319.004h-148v148h148
v-148z" />
    <glyph glyph-name="uni06B2.fina" unicode="&#x6b2;" horiz-adv-x="1982" 
d="M1982 0l-118 -0.00488281c-52.667 0 -104 9.5 -154 28.5s-91.667 45.833 -125 80.5c-34 -37.333 -76.167 -64.833 -126.5 -82.5s-109.166 -26.5 -176.499 -26.5h-463c-244 0 -426.167 43.333 -546.5 130s-180.5 210.667 -180.5 372c0 52 3.16699 95.833 9.5 131.5
s10.166 57.834 11.499 66.501h172v-10c-4 -14.667 -9.5 -41 -16.5 -79s-10.5 -70.333 -10.5 -97c0 -47.333 9.5 -90.5 28.5 -129.5s51.167 -73.167 96.5 -102.5c44.667 -30 101.5 -53.167 170.5 -69.5s157.5 -24.5 265.5 -24.5h461c74 0 129.667 13.5 167 40.5
s56 64.833 56 113.5c0 28.667 -18.167 63.834 -54.5 105.501s-92.5 93.834 -168.5 156.501l-274 225c-31.333 26 -58.333 52.5 -81 79.5s-34 56.5 -34 88.5c0 46 18.333 86 55 120s92 68.667 166 104l641 309v-197l-559 -268c-21.333 -10 -45.5 -22.5 -72.5 -37.5
s-40.5 -27.833 -40.5 -38.5s12.5 -27 37.5 -49l85.5 -72l266 -219c72.667 -59.333 124 -112.166 154 -158.499s45 -95.166 45 -146.499v-6.5v-7.5c0 -43.333 17.833 -77.833 53.5 -103.5s81.5 -38.5 137.5 -38.5h122v-188zM1733 1630l-811 -405v100l811 406v-101z
M951 -319.005h-148v148h148v-148zM1219 -319.005h-148v148h148v-148z" />
    <glyph glyph-name="uni06B3" unicode="&#x6b3;" horiz-adv-x="1892" arabic-form="isolated" 
d="M1278 188c81.333 0 138.834 14.8311 172.501 44.498s50.5 66.167 50.5 109.5c0 30 -13.833 64.833 -41.5 104.5s-81.5 92.167 -161.5 157.5l-274 225c-30.667 26 -57.5 52.5 -80.5 79.5s-34.5 56.5 -34.5 88.5c0 40.667 13.5 76.834 40.5 108.501
s87.167 70.167 180.5 115.5l642 309v-197l-560 -268c-21.333 -10 -45.333 -22.5 -72 -37.5s-40 -27.833 -40 -38.5c0 -12 14 -29.833 42 -53.5l81 -67.5l266 -219c64 -52.667 109.667 -103.834 137 -153.501s41 -100.167 41 -151.5c0 -46 -7.66699 -90.667 -23 -134
s-38 -79.666 -68 -108.999c-34 -33.333 -75.833 -58.5 -125.5 -75.5s-106.5 -25.5 -170.5 -25.5h-461c-244 0 -426.167 43.333 -546.5 130s-180.5 210.667 -180.5 372c0 52 3.16699 95.833 9.5 131.5s10.166 57.834 11.499 66.501h172v-10c-4 -14.667 -9.5 -41 -16.5 -79
s-10.5 -70.333 -10.5 -97c0 -47.333 9.5 -90.5 28.5 -129.5s51.167 -73.167 96.5 -102.5c44.667 -30 101.5 -53.167 170.5 -69.5s157.5 -24.5 265.5 -24.5h459zM1733 1630l-811 -405v100l811 406v-101zM1085 -214.002h-148v148h148v-148zM1085 -423.002h-148v148h148v-148z
" />
    <glyph glyph-name="uni06B4.init" unicode="&#x6b4;" horiz-adv-x="983" 
d="M862 1333l-560 -267.999c-21.333 -10 -45.333 -22.5 -72 -37.5s-40 -27.833 -40 -38.5c0 -12 14 -29.833 42 -53.5l81 -67.5l266 -219c64 -52.667 109.667 -103.834 137 -153.501s41 -100.167 41 -151.5c0 -46 -7.66699 -90.667 -23 -134s-38 -79.666 -68 -108.999
c-34 -33.333 -75.833 -58.5 -125.5 -75.5s-106.5 -25.5 -170.5 -25.5h-440v188h438c81.333 0 138.833 14.833 172.5 44.5s50.5 66.167 50.5 109.5c0 30 -14 64.833 -42 104.5s-81.667 92.167 -161 157.5l-274 225c-30.667 25.333 -57.5 51.666 -80.5 78.999
s-34.5 57 -34.5 89c0 40.667 13.5 77 40.5 109s87.167 70.333 180.5 115l642 309v-197zM823 1630l-811 -405v100l811 406v-101zM137 1583h-148v148h148v-148zM433 1583h-148v148h148v-148zM285 1792h-148v148h148v-148z" />
    <glyph glyph-name="uni06B4.medi" unicode="&#x6b4;" horiz-adv-x="1090" 
d="M1090 0l-117.001 -0.00390625c-52.667 0 -104 9.5 -154 28.5s-91.667 45.833 -125 80.5c-34 -37.333 -76.167 -64.833 -126.5 -82.5s-109.166 -26.5 -176.499 -26.5h-461v188h459c74 0 129.667 13.5 167 40.5s56 64.833 56 113.5c0 28.667 -18.167 63.834 -54.5 105.501
s-92.5 93.834 -168.5 156.501l-274 225c-31.333 26 -58.333 52.5 -81 79.5s-34 56.5 -34 88.5c-0 46 18.333 86 55 120s92 68.667 166 104l641 309v-197l-559 -268c-21.333 -10 -45.5 -22.5 -72.5 -37.5s-40.5 -27.833 -40.5 -38.5s12.5 -27 37.5 -49l85.5 -72l266 -219
c72.667 -59.333 124 -112.166 154 -158.499s45 -95.166 45 -146.499v-6.5v-7.5c0 -43.333 17.833 -77.833 53.5 -103.5s81.5 -38.5 137.5 -38.5h121v-188zM841.999 1630l-811 -405v100l811 406v-101zM136.999 1583h-148v148h148v-148zM432.999 1583h-148v148h148v-148z
M284.999 1792h-148v148h148v-148z" />
    <glyph glyph-name="uni06B4.fina" unicode="&#x6b4;" horiz-adv-x="1982" 
d="M1982 0l-118 -0.00488281c-52.667 0 -104 9.5 -154 28.5s-91.667 45.833 -125 80.5c-34 -37.333 -76.167 -64.833 -126.5 -82.5s-109.166 -26.5 -176.499 -26.5h-463c-244 0 -426.167 43.333 -546.5 130s-180.5 210.667 -180.5 372c0 52 3.16699 95.833 9.5 131.5
s10.166 57.834 11.499 66.501h172v-10c-4 -14.667 -9.5 -41 -16.5 -79s-10.5 -70.333 -10.5 -97c0 -47.333 9.5 -90.5 28.5 -129.5s51.167 -73.167 96.5 -102.5c44.667 -30 101.5 -53.167 170.5 -69.5s157.5 -24.5 265.5 -24.5h461c74 0 129.667 13.5 167 40.5
s56 64.833 56 113.5c0 28.667 -18.167 63.834 -54.5 105.501s-92.5 93.834 -168.5 156.501l-274 225c-31.333 26 -58.333 52.5 -81 79.5s-34 56.5 -34 88.5c0 46 18.333 86 55 120s92 68.667 166 104l641 309v-197l-559 -268c-21.333 -10 -45.5 -22.5 -72.5 -37.5
s-40.5 -27.833 -40.5 -38.5s12.5 -27 37.5 -49l85.5 -72l266 -219c72.667 -59.333 124 -112.166 154 -158.499s45 -95.166 45 -146.499v-6.5v-7.5c0 -43.333 17.833 -77.833 53.5 -103.5s81.5 -38.5 137.5 -38.5h122v-188zM1733 1630l-811 -405v100l811 406v-101zM1037 1583
h-148v148h148v-148zM1333 1583h-148v148h148v-148zM1185 1792h-148v148h148v-148z" />
    <glyph glyph-name="uni06B5.init" unicode="&#x6b5;" horiz-adv-x="575" 
d="M442 453c0 -144.667 -33.833 -256.333 -101.5 -335s-160.167 -118 -277.5 -118h-133v188h138c39.333 0 73 8.16699 101 24.5s49.333 37.5 64 63.5c14.667 24 25.5 52 32.5 84s10.5 67 10.5 105v1091h166v-1103zM541 1964l-137 -286h-98l-137 286h107l79 -194l79 194h107z
" />
    <glyph glyph-name="uni06B5.medi" unicode="&#x6b5;" horiz-adv-x="719" 
d="M719 0l-117 -0.000976562c-41.333 0 -86.833 11 -136.5 33s-85.5 52 -107.5 90c-23.333 -39.333 -58.333 -69.666 -105 -90.999s-92 -32 -136 -32h-187v188h142c60 0 108.667 20.667 146 62s56 100 56 176v1128h168v-1128c0 -72.667 18.5 -130.5 55.5 -173.5
s86.833 -64.5 149.5 -64.5h72v-188zM541 1964l-137 -286h-98l-137 286h107l79 -194l79 194h107z" />
    <glyph glyph-name="uni06B5.fina" unicode="&#x6b5;" horiz-adv-x="1481" 
d="M1481 0l-116.998 0.000976562c-24.667 0 -51.834 4.5 -81.501 13.5s-56.5 20.833 -80.5 35.5v-51c0 -136 -51.333 -240.333 -154 -313s-252 -109 -448 -109c-184.667 0 -315.5 32.5 -392.5 97.5s-115.5 177.833 -115.5 338.5c0 52 3.16699 104.667 9.5 158
s10.166 84.666 11.499 93.999h172v-10c-3.33301 -16 -8.66602 -51.5 -15.999 -106.5s-11 -99.5 -11 -133.5c0 -48 4.5 -86.833 13.5 -116.5s24.833 -54.167 47.5 -73.5c26 -21.333 62 -36.666 108 -45.999s104.333 -14 175 -14c136.667 0 243.167 21.667 319.5 65
s114.5 103.666 114.5 180.999v1546h166v-1130c0 -74.667 19.167 -133 57.5 -175s88.166 -63 149.499 -63h72v-188zM1301 1964l-137 -286h-98l-137 286h107l79 -194l79 194h107z" />
    <glyph glyph-name="uni06B6.init" unicode="&#x6b6;" horiz-adv-x="575" 
d="M442 453c0 -144.667 -33.833 -256.333 -101.5 -335s-160.167 -118 -277.5 -118h-133v188h138c39.333 0 73 8.16699 101 24.5s49.333 37.5 64 63.5c14.667 24 25.5 52 32.5 84s10.5 67 10.5 105v1091h166v-1103zM435 1678h-148v148h148v-148z" />
    <glyph glyph-name="uni06B6.medi" unicode="&#x6b6;" horiz-adv-x="719" 
d="M719 0l-117 -0.000976562c-41.333 0 -86.833 11 -136.5 33s-85.5 52 -107.5 90c-23.333 -39.333 -58.333 -69.666 -105 -90.999s-92 -32 -136 -32h-187v188h142c60 0 108.667 20.667 146 62s56 100 56 176v1128h168v-1128c0 -72.667 18.5 -130.5 55.5 -173.5
s86.833 -64.5 149.5 -64.5h72v-188zM435 1678h-148v148h148v-148z" />
    <glyph glyph-name="uni06B6.fina" unicode="&#x6b6;" horiz-adv-x="1481" 
d="M1481 0l-116.998 0.000976562c-24.667 0 -51.834 4.5 -81.501 13.5s-56.5 20.833 -80.5 35.5v-51c0 -136 -51.333 -240.333 -154 -313s-252 -109 -448 -109c-184.667 0 -315.5 32.5 -392.5 97.5s-115.5 177.833 -115.5 338.5c0 52 3.16699 104.667 9.5 158
s10.166 84.666 11.499 93.999h172v-10c-3.33301 -16 -8.66602 -51.5 -15.999 -106.5s-11 -99.5 -11 -133.5c0 -48 4.5 -86.833 13.5 -116.5s24.833 -54.167 47.5 -73.5c26 -21.333 62 -36.666 108 -45.999s104.333 -14 175 -14c136.667 0 243.167 21.667 319.5 65
s114.5 103.666 114.5 180.999v1546h166v-1130c0 -74.667 19.167 -133 57.5 -175s88.166 -63 149.499 -63h72v-188zM1185 1678h-148v148h148v-148z" />
    <glyph glyph-name="uni06B7.init" unicode="&#x6b7;" horiz-adv-x="575" 
d="M442 453c0 -144.667 -33.833 -256.333 -101.5 -335s-160.167 -118 -277.5 -118h-133v188h138c39.333 0 73 8.16699 101 24.5s49.333 37.5 64 63.5c14.667 24 25.5 52 32.5 84s10.5 67 10.5 105v1091h166v-1103zM287 1678h-148v148h148v-148zM583 1678h-148v148h148v-148z
M435 1887h-148v148h148v-148z" />
    <glyph glyph-name="uni06B7.medi" unicode="&#x6b7;" horiz-adv-x="719" 
d="M719 0l-117 -0.000976562c-41.333 0 -86.833 11 -136.5 33s-85.5 52 -107.5 90c-23.333 -39.333 -58.333 -69.666 -105 -90.999s-92 -32 -136 -32h-187v188h142c60 0 108.667 20.667 146 62s56 100 56 176v1128h168v-1128c0 -72.667 18.5 -130.5 55.5 -173.5
s86.833 -64.5 149.5 -64.5h72v-188zM287 1678h-148v148h148v-148zM583 1678h-148v148h148v-148zM435 1887h-148v148h148v-148z" />
    <glyph glyph-name="uni06B7.fina" unicode="&#x6b7;" horiz-adv-x="1481" 
d="M1481 0l-116.998 0.000976562c-24.667 0 -51.834 4.5 -81.501 13.5s-56.5 20.833 -80.5 35.5v-51c0 -136 -51.333 -240.333 -154 -313s-252 -109 -448 -109c-184.667 0 -315.5 32.5 -392.5 97.5s-115.5 177.833 -115.5 338.5c0 52 3.16699 104.667 9.5 158
s10.166 84.666 11.499 93.999h172v-10c-3.33301 -16 -8.66602 -51.5 -15.999 -106.5s-11 -99.5 -11 -133.5c0 -48 4.5 -86.833 13.5 -116.5s24.833 -54.167 47.5 -73.5c26 -21.333 62 -36.666 108 -45.999s104.333 -14 175 -14c136.667 0 243.167 21.667 319.5 65
s114.5 103.666 114.5 180.999v1546h166v-1130c0 -74.667 19.167 -133 57.5 -175s88.166 -63 149.499 -63h72v-188zM1037 1678h-148v148h148v-148zM1333 1678h-148v148h148v-148zM1185 1887h-148v148h148v-148z" />
    <glyph glyph-name="uni06B8.init" unicode="&#x6b8;" horiz-adv-x="575" 
d="M442 453c0 -144.667 -33.833 -256.333 -101.5 -335s-160.167 -118 -277.5 -118h-133v188h138c39.333 0 73 8.16699 101 24.5s49.333 37.5 64 63.5c14.667 24 25.5 52 32.5 84s10.5 67 10.5 105v1091h166v-1103zM177 -213.999h-148v148h148v-148zM473 -213.999h-148v148
h148v-148zM325 -422.999h-148v148h148v-148z" />
    <glyph glyph-name="uni06B8.medi" unicode="&#x6b8;" horiz-adv-x="719" 
d="M719 0l-117 -0.000976562c-41.333 0 -86.833 11 -136.5 33s-85.5 52 -107.5 90c-23.333 -39.333 -58.333 -69.666 -105 -90.999s-92 -32 -136 -32h-187v188h142c60 0 108.667 20.667 146 62s56 100 56 176v1128h168v-1128c0 -72.667 18.5 -130.5 55.5 -173.5
s86.833 -64.5 149.5 -64.5h72v-188zM287 -214.001h-148v148h148v-148zM583 -214.001h-148v148h148v-148zM435 -423.001h-148v148h148v-148z" />
    <glyph glyph-name="uni06B8.fina" unicode="&#x6b8;" horiz-adv-x="1481" 
d="M1481 0l-117.001 -0.000976562c-39.333 0 -82.333 11 -129 33c-52 24.667 -88 54.334 -108 89.001c-34 -51.333 -92.333 -93.666 -175 -126.999c-96.667 -39.333 -214 -59 -352 -59c-175.333 0 -300.666 28.667 -375.999 86c-88 66 -132 182.667 -132 350
c0 70 7 154 21 252h172v-10c-18 -86.667 -27 -166.667 -27 -240c0 -108.667 33.333 -180.334 100 -215.001c44.667 -23.333 126 -35 244 -35c109.333 0 201.333 14.667 276 44c105.333 42 158 109.333 158 202v1186h166v-1140c0 -63.333 18 -116.333 54 -159
c38.667 -46 89.667 -69 153 -69h72v-188zM817.999 -244.001h-148v148h148v-148zM521.999 -244.001h-148v148h148v-148zM669.999 -423.001h-148v148h148v-148z" />
    <glyph glyph-name="uni06B9.init" unicode="&#x6b9;" horiz-adv-x="573" 
d="M440 453c0 -142 -33.667 -253 -101 -333s-160 -120 -278 -120h-131v188h136c68 0 119.667 24.333 155 73s53 116.667 53 204v252h166v-264zM425 968h-148v148h148v-148zM425 -319h-148v148h148v-148z" />
    <glyph glyph-name="uni06B9.medi" unicode="&#x6b9;" horiz-adv-x="719" 
d="M719 0l-117 -0.000976562c-41.333 0 -86.833 11 -136.5 33s-85.5 52 -107.5 90c-23.333 -39.333 -58.333 -69.666 -105 -90.999s-92 -32 -136 -32h-187v188h142c60 0 108.667 20.667 146 62s56 100 56 176v121h168v-121c0 -72 18.833 -129.667 56.5 -173
s87.167 -65 148.5 -65h72v-188zM425 812.999h-148v148h148v-148zM425 -319.001h-148v148h148v-148z" />
    <glyph glyph-name="uni06B9.fina" unicode="&#x6b9;" horiz-adv-x="1542" 
d="M754 789h-148v148h148v-148zM1565 0l-140.001 0.000976562c-31.333 0 -66 8.66699 -104 26c-43.333 20 -71.666 43.667 -84.999 71c-20 -62.667 -79 -128.334 -177 -197.001c-118.667 -82.667 -245 -124 -379 -124c-184 0 -326.333 41 -427 123
c-107.333 87.333 -161 218.333 -161 393c0 44 9 147 27 309h182v-16c-28.667 -94 -43 -192.333 -43 -295c0 -110 44 -194 132 -252c74.667 -49.333 170 -74 286 -74c112.667 0 208 25.667 286 77c90.667 59.333 136 142.333 136 249c0 85.333 -10.333 183 -31 293v18h199
c0 -138 13 -238 39 -300c30.667 -75.333 85.667 -113 165 -113h95v-188zM753.999 -422.999h-148v148h148v-148z" />
    <glyph glyph-name="uni06BA" unicode="&#x6ba;" horiz-adv-x="1356" arabic-form="isolated" 
d="M1264 530c0 -96 -15.666 -178.501 -46.999 -247.501s-73.333 -125.167 -126 -168.5c-52 -42.667 -112.667 -74.667 -182 -96s-145.666 -32 -228.999 -32c-79.333 0 -154.833 10.333 -226.5 31s-134.167 53 -187.5 97c-54 44.667 -96.5 101.334 -127.5 170.001
s-46.5 150.667 -46.5 246c0 67.333 4.16699 133.666 12.5 198.999s13.166 102.333 14.499 111h182v-17c-8 -26 -17.167 -69.167 -27.5 -129.5s-15.5 -115.5 -15.5 -165.5c0 -106.667 41.333 -192.334 124 -257.001s180.667 -97 294 -97s212 31.833 296 95.5
s126 149.834 126 258.501c0 50 -5.16699 105.167 -15.5 165.5s-19.5 103.5 -27.5 129.5v17h182c1.33301 -8.66699 6.16602 -45.667 14.499 -111s12.5 -131.666 12.5 -198.999z" />
    <glyph glyph-name="uni06BB" unicode="&#x6bb;" horiz-adv-x="1356" arabic-form="isolated" 
d="M1264 530c0 -96 -15.666 -178.501 -46.999 -247.501s-73.333 -125.167 -126 -168.5c-52 -42.667 -112.667 -74.667 -182 -96s-145.666 -32 -228.999 -32c-79.333 0 -154.833 10.333 -226.5 31s-134.167 53 -187.5 97c-54 44.667 -96.5 101.334 -127.5 170.001
s-46.5 150.667 -46.5 246c0 67.333 4.16699 133.666 12.5 198.999s13.166 102.333 14.499 111h182v-17c-8 -26 -17.167 -69.167 -27.5 -129.5s-15.5 -115.5 -15.5 -165.5c0 -106.667 41.333 -192.334 124 -257.001s180.667 -97 294 -97s212 31.833 296 95.5
s126 149.834 126 258.501c0 50 -5.16699 105.167 -15.5 165.5s-19.5 103.5 -27.5 129.5v17h182c1.33301 -8.66699 6.16602 -45.667 14.499 -111s12.5 -131.666 12.5 -198.999zM981.001 1143c0 -59.333 -29.332 -103.667 -87.999 -133c-44.667 -22 -98 -33 -160 -33h-289v92
h82c14 10.667 21 18.667 21 24v500h83v-397c69.333 75.333 132.666 113 189.999 113c47.333 0 86 -15.667 116 -47s45 -71 45 -119zM897.002 1141c0 21.333 -7.5 39.5 -22.5 54.5s-33.5 22.5 -55.5 22.5c-48 0 -107.667 -49.667 -179 -149h48c139.333 0 209 24 209 72z" />
    <glyph glyph-name="uni06BC.init" unicode="&#x6bc;" horiz-adv-x="573" 
d="M440 453c0 -142 -33.667 -253 -101 -333s-160 -120 -278 -120h-131v188h136c68 0 119.667 24.333 155 73s53 116.667 53 204v252h166v-264zM425 968h-148v148h148v-148zM377 -80c0 -52.667 -18.668 -97.333 -56.001 -134s-81.666 -55 -132.999 -55
c-52 0 -96.333 18.5 -133 55.5s-55 81.5 -55 133.5c0 51.333 18.5 95.5 55.5 132.5s81.167 55.5 132.5 55.5c52 0 96.5 -18.333 133.5 -55s55.5 -81 55.5 -133zM284.999 -80.999c0 26.667 -9.33105 49.334 -27.998 68.001s-41.667 28 -69 28
c-26.667 0 -49.334 -9.33301 -68.001 -28s-28 -41.334 -28 -68.001c0 -25.333 9.66699 -47.333 29 -66s41.666 -28 66.999 -28c26 0 48.667 9.33301 68 28s29 40.667 29 66z" />
    <glyph glyph-name="uni06BC.medi" unicode="&#x6bc;" horiz-adv-x="719" 
d="M719 0l-117 -0.000976562c-41.333 0 -86.833 11 -136.5 33s-85.5 52 -107.5 90c-23.333 -39.333 -58.333 -69.666 -105 -90.999s-92 -32 -136 -32h-187v188h142c60 0 108.667 20.667 146 62s56 100 56 176v121h168v-121c0 -72 18.833 -129.667 56.5 -173
s87.167 -65 148.5 -65h72v-188zM425 812.999h-148v148h148v-148zM377 -90.001c0 -52.667 -18.668 -97.333 -56.001 -134s-81.666 -55 -132.999 -55c-52 0 -96.333 18.5 -133 55.5s-55 81.5 -55 133.5c0 51.333 18.5 95.5 55.5 132.5s81.167 55.5 132.5 55.5
c52 0 96.5 -18.333 133.5 -55s55.5 -81 55.5 -133zM284.999 -91c0 26.667 -9.33105 49.334 -27.998 68.001s-41.667 28 -69 28c-26.667 0 -49.334 -9.33301 -68.001 -28s-28 -41.334 -28 -68.001c0 -25.333 9.66699 -47.333 29 -66s41.666 -28 66.999 -28
c26 0 48.667 9.33301 68 28s29 40.667 29 66z" />
    <glyph glyph-name="uni06BC.fina" unicode="&#x6bc;" horiz-adv-x="1542" 
d="M754 968h-148v148h148v-148zM1542 0l-116.998 0.000976562c-48 0 -95.667 20 -143 60c-43.333 36.667 -74 78.667 -92 126c-32 -54.667 -85.333 -103.334 -160 -146.001c-100.667 -56.667 -217.334 -85 -350.001 -85c-184 0 -326.333 41 -427 123
c-107.333 87.333 -161 218.333 -161 393c0 44 9 147 27 309h182v-16c-28.667 -94 -43 -192.333 -43 -295c0 -110 44 -194 132 -252c74.667 -49.333 170 -74 286 -74c112.667 0 208 25.667 286 77c90.667 59.333 136 142.333 136 249c0 85.333 -10.333 183 -31 293v18h199
c0 -206 8.66699 -345 26 -417c27.333 -116.667 86.666 -175 177.999 -175h72v-188zM870.002 -140.999c0 -52.667 -18.333 -97.334 -55 -134.001s-81.334 -55 -134.001 -55s-97.167 18.333 -133.5 55s-54.5 81.334 -54.5 134.001c0 52 18.333 96.333 55 133s81 55 133 55
c52.667 0 97.334 -18.333 134.001 -55s55 -81 55 -133zM778.002 -141.999c0 27.333 -9.33105 50.168 -27.998 68.501s-41.667 27.5 -69 27.5c-26.667 0 -49.334 -9.33301 -68.001 -28s-28 -41.334 -28 -68.001c0 -25.333 9.66699 -47.333 29 -66s41.666 -28 66.999 -28
c26 0 48.667 9.16699 68 27.5s29 40.5 29 66.5z" />
    <glyph glyph-name="uni06BD.fina" unicode="&#x6bd;" horiz-adv-x="1542" 
d="M1542 0h-117c-24.667 -0 -52 4.33301 -82 13s-57 21.334 -81 38.001c0 -144 -52 -259.167 -156 -345.5s-246 -129.5 -426 -129.5c-82.667 0 -160.5 9.5 -233.5 28.5s-135.167 48.5 -186.5 88.5c-52.667 41.333 -93.834 94.666 -123.501 159.999s-44.5 145 -44.5 239
c0 66.667 4 130.334 12 191.001s13 100 15 118h182v-16c-7.33301 -24 -16.333 -66.833 -27 -128.5s-16 -117.167 -16 -166.5c0 -102.667 38.667 -182.667 116 -240s178 -86 302 -86c120.667 0 221.167 29.333 301.5 88s120.5 138 120.5 238c0 76 -4.66699 141.167 -14 195.5
s-15 86.833 -17 97.5v18h199c0 -60.667 20.333 -111.334 61 -152.001s88.334 -61 143.001 -61h72v-188zM637 569h-148v148h148v-148zM933 569h-148v148h148v-148zM785 778h-148v148h148v-148z" />
    <glyph glyph-name="afii57470" unicode="&#x647;" horiz-adv-x="1376" arabic-form="initial" 
d="M1286 344c0 -113.333 -31.165 -199.002 -93.498 -257.002s-146.5 -87 -252.5 -87h-1010v188h295c-10.667 24.667 -21.167 56.5 -31.5 95.5s-15.5 74.833 -15.5 107.5c0 124.667 31 221 93 289s143 102 243 102c99.333 0 180.166 -33.5 242.499 -100.5
s93.5 -163.833 93.5 -290.5c0 -35.333 -3.16699 -70.666 -9.5 -105.999s-16.166 -67.666 -29.499 -96.999h127c50.667 0 93.667 14 129 42s53 65.333 53 112c0 62 -14.5 118.333 -43.5 169s-78.5 116 -148.5 196c-74 84 -134.667 139.667 -182 167s-107 41 -179 41h-153v189
h151c75.333 0 151.666 -23.167 228.999 -69.5s162.333 -122.833 255 -229.5c79.333 -91.333 138.666 -171.5 177.999 -240.5s59 -142.5 59 -220.5zM684.002 390.998c0 64 -15.333 113.833 -46 149.5s-72 53.5 -124 53.5c-52.667 0 -94.167 -17.5 -124.5 -52.5
s-45.5 -85.167 -45.5 -150.5c0 -64 15.333 -113.833 46 -149.5s72 -53.5 124 -53.5c52.667 0 94.167 17.5 124.5 52.5s45.5 85.167 45.5 150.5z" />
    <glyph glyph-name="uni06BF.init" unicode="&#x6bf;" horiz-adv-x="1350" 
d="M1280 461c-164.667 -98.667 -375.836 -200.167 -633.503 -304.5s-445.167 -156.5 -562.5 -156.5h-154v188h158c92.667 0 222.334 28.5 389.001 85.5s309.334 116.167 428.001 177.5c-58 40 -149.667 79.667 -275 119s-254.666 59 -387.999 59h-117v186h127
c122.667 0 257 -23.333 403 -70s287.333 -112.667 424 -198l201 102v-188zM872.998 -148h-148v148h148v-148zM1169 -148h-148v148h148v-148zM1021 -357h-148v148h148v-148zM655.998 989h-148v148h148v-148z" />
    <glyph glyph-name="uni06BF.medi" unicode="&#x6bf;" horiz-adv-x="1393" 
d="M791 217c-146.667 -64.667 -283.504 -117.001 -410.504 -157.001s-225.833 -60 -296.5 -60h-154v188h158c92.667 0 222.334 28.5 389.001 85.5s309.334 116.167 428.001 177.5c-58 40 -149.667 79.667 -275 119s-254.666 59 -387.999 59h-117v186h127
c122.667 0 257 -23.333 403 -70s287.333 -112.667 424 -198l201 102v-188c-45.333 -26.667 -96.666 -55.167 -153.999 -85.5s-117.333 -59.833 -180 -88.5c15.333 -29.333 37.666 -53.166 66.999 -71.499s70.666 -27.5 123.999 -27.5h256v-188h-252
c-93.333 0 -170.166 17.5 -230.499 52.5s-100.166 89.833 -119.499 164.5zM542.996 -214.001h-148v148h148v-148zM838.996 -214.001h-148v148h148v-148zM690.996 -423.001h-148v148h148v-148zM655.996 988.999h-148v148h148v-148z" />
    <glyph glyph-name="uni06BF.fina" unicode="&#x6bf;" horiz-adv-x="1434" 
d="M1434 0l-98.998 -0.00390625c-108.667 0 -186.334 24.333 -233.001 73s-70 129.334 -70 242.001v246c-121.333 -2 -231 -12.5 -329 -31.5s-180.333 -46.167 -247 -81.5c-68 -36 -120 -82 -156 -138s-54 -122.333 -54 -199c0 -105.333 38.167 -190.166 114.5 -254.499
s174.5 -96.5 294.5 -96.5c90.667 0 172.334 10.5 245.001 31.5s136 48.833 190 83.5h10v-201c-58.667 -30 -120.334 -53.833 -185.001 -71.5s-150.667 -26.5 -258 -26.5c-81.333 0 -157 11.833 -227 35.5s-131 58.5 -183 104.5s-92.833 102.333 -122.5 169
s-44.5 142.667 -44.5 228c0 78.667 18.667 153 56 223s97 132.667 179 188c67.333 45.333 143.666 80.166 228.999 104.499s169.666 38.833 252.999 43.5c-81.333 38 -160.666 64.167 -237.999 78.5s-170 21.5 -278 21.5h-76v186h88c108 0 230.667 -21.5 368 -64.5
s266 -101.833 386 -176.5h170v-156h-56v-155c0 -37.333 1.83301 -67.666 5.5 -90.999s12.167 -45.666 25.5 -66.999c12.667 -19.333 29.5 -34.166 50.5 -44.499s50.5 -15.5 88.5 -15.5h103v-188zM587.002 131.996h-148v148h148v-148zM883.002 131.996h-148v148h148v-148z
M735.002 -77.0039h-148v148h148v-148zM816.002 1120h-148v148h148v-148z" />
    <glyph glyph-name="uni06C1" unicode="&#x6c1;" horiz-adv-x="1066" arabic-form="final" 
d="M1066 0c-152.667 0 -246.003 68.668 -280.003 206.001c-13.333 53.333 -26.666 91.333 -39.999 114c-22 36.667 -52.667 55 -92 55c-55.333 0 -119.333 -61 -192 -183c-58 -98.667 -113.667 -221.334 -167 -368.001h-195v10c108.667 242 189 402.667 241 482
c98.667 148.667 202.334 223 311.001 223c144.667 0 242.334 -80.667 293.001 -242c14 -44.667 30 -74 48 -88s42.333 -21 73 -21v-188z" />
    <glyph glyph-name="uni06C4.fina" unicode="&#x6c4;" horiz-adv-x="909" 
d="M909 0l-176.005 -0.000976562c-29.333 -91.333 -77.166 -165.666 -143.499 -222.999s-146.166 -101.666 -239.499 -132.999c-84.667 -28.667 -168.667 -47.167 -252 -55.5s-155.666 -12.5 -216.999 -12.5v188c50 0 110.667 2.66699 182 8s136.333 15.666 195 30.999
c78 21.333 140.667 48.333 188 81s83 72.667 107 120c-98 8 -178.167 27 -240.5 57s-112.166 66.667 -149.499 110c-36 41.333 -60.833 85.333 -74.5 132s-20.5 89 -20.5 127c0 100 32.5 187.5 97.5 262.5s138.167 112.5 219.5 112.5
c110.667 0 200.834 -57.667 270.501 -173s104.5 -263.333 104.5 -444h149v-188zM298.995 293.999c24 -24.667 59.165 -46.998 105.498 -66.998s107.5 -32.333 183.5 -37c-3.33301 133.333 -22.666 237.666 -57.999 312.999s-79.666 113 -132.999 113
c-46 0 -83.667 -18.833 -113 -56.5s-44 -78.834 -44 -123.501c0 -19.333 3.33301 -41.333 10 -66s23 -50 49 -76zM236.993 -131.999c0 -52.667 -18.668 -97.333 -56.001 -134s-81.666 -55 -132.999 -55c-52 0 -96.333 18.5 -133 55.5s-55 81.5 -55 133.5
c0 51.333 18.5 95.5 55.5 132.5s81.167 55.5 132.5 55.5c52 0 96.5 -18.333 133.5 -55s55.5 -81 55.5 -133zM144.992 -132.998c0 26.667 -9.33105 49.334 -27.998 68.001s-41.667 28 -69 28c-26.667 0 -49.334 -9.33301 -68.001 -28s-28 -41.334 -28 -68.001
c0 -25.333 9.66699 -47.333 29 -66s41.666 -28 66.999 -28c26 0 48.667 9.33301 68 28s29 40.667 29 66z" />
    <glyph glyph-name="uni06C5" unicode="&#x6c5;" horiz-adv-x="854" arabic-form="isolated" 
d="M760 186c0 -246 -112.997 -416.666 -338.997 -511.999c-154.667 -65.333 -334.667 -98 -540 -98v188c185.333 0 335.666 22 450.999 66c43.333 16.667 82 36.667 116 60h-448v110h553c23.333 43.333 35 94.666 35 153.999c-42.667 -27.333 -94.667 -41 -156 -41
c-102.667 0 -187.667 26.667 -255 80c-72.667 58 -109 137 -109 237c0 92 29.333 176 88 252c63.333 82 139.666 123 228.999 123c131.333 0 230.666 -75 297.999 -225c51.333 -114 77 -245.333 77 -394zM575.003 340.001c0 50 -16.334 106.333 -49.001 169
c-37.333 71.333 -80.333 107 -129 107c-45.333 0 -83.333 -19 -114 -57c-28.667 -35.333 -43 -76.333 -43 -123c0 -46 23 -81.333 69 -106c36.667 -19.333 80.334 -29 131.001 -29c55.333 0 100.333 13 135 39z" />
    <glyph glyph-name="uni06C6" unicode="&#x6c6;" horiz-adv-x="854" arabic-form="isolated" 
d="M760 186c0 -124 -30.001 -229.331 -90.001 -315.998s-143 -152 -249 -196c-84.667 -36.667 -171.667 -62.167 -261 -76.5s-182.333 -21.5 -279 -21.5v188c88 0 170.833 5.5 248.5 16.5s145.167 27.5 202.5 49.5c77.333 29.333 139.333 69.666 186 120.999s70 119 70 203
c-9.33301 -6 -30.5 -14.333 -63.5 -25s-63.833 -16 -92.5 -16c-114.667 0 -204 30.5 -268 91.5s-96 136.167 -96 225.5c0 101.333 32.833 189.166 98.5 263.499s138.5 111.5 218.5 111.5c110.667 0 200.834 -57.667 270.501 -173s104.5 -264 104.5 -446zM574.999 340.002
c0 18.667 -3.99902 43.5 -11.999 74.5s-20.333 62.5 -37 94.5c-14.667 28 -33.334 52.833 -56.001 74.5s-47 32.5 -73 32.5c-46 0 -83.667 -18.833 -113 -56.5s-44 -78.834 -44 -123.501c0 -39.333 18.167 -71.666 54.5 -96.999s84.833 -38 145.5 -38
c28.667 0 55.667 4.5 81 13.5s43.333 17.5 54 25.5zM561 1257l-137 -286h-98l-137 286h107l79 -194l79 194h107z" />
    <glyph glyph-name="uni06C7" unicode="&#x6c7;" horiz-adv-x="854" arabic-form="isolated" 
d="M760 186c0 -124 -30.001 -229.331 -90.001 -315.998s-143 -152 -249 -196c-84.667 -36.667 -171.667 -62.167 -261 -76.5s-182.333 -21.5 -279 -21.5v188c88 0 170.833 5.5 248.5 16.5s145.167 27.5 202.5 49.5c77.333 29.333 139.333 69.666 186 120.999s70 119 70 203
c-9.33301 -6 -30.5 -14.333 -63.5 -25s-63.833 -16 -92.5 -16c-114.667 0 -204 30.5 -268 91.5s-96 136.167 -96 225.5c0 101.333 32.833 189.166 98.5 263.499s138.5 111.5 218.5 111.5c110.667 0 200.834 -57.667 270.501 -173s104.5 -264 104.5 -446zM574.999 340.002
c0 18.667 -3.99902 43.5 -11.999 74.5s-20.333 62.5 -37 94.5c-14.667 28 -33.334 52.833 -56.001 74.5s-47 32.5 -73 32.5c-46 0 -83.667 -18.833 -113 -56.5s-44 -78.834 -44 -123.501c0 -39.333 18.167 -71.666 54.5 -96.999s84.833 -38 145.5 -38
c28.667 0 55.667 4.5 81 13.5s43.333 17.5 54 25.5zM636 1055l-126.999 27.999c-60.667 -34.667 -120.834 -61 -180.501 -79s-122.5 -29 -188.5 -33v88c50 3.33301 97 9.66602 141 18.999s87.667 24 131 44c-34 10.667 -64 29.834 -90 57.501s-39 60.5 -39 98.5
c0 46 15.5 83.833 46.5 113.5s72.833 44.5 125.5 44.5c46 0 85.833 -15 119.5 -45s50.5 -69 50.5 -117c0 -22.667 -6 -46.167 -18 -70.5s-23.667 -41.166 -35 -50.499l64 -12v-86zM488.001 1178c14 12 25.332 25.5 33.999 40.5s13 34.167 13 57.5
c0 19.333 -7.83301 35 -23.5 47s-33.167 18 -52.5 18c-23.333 0 -42.666 -5.5 -57.999 -16.5s-23 -27.167 -23 -48.5c0 -22.667 9.5 -42.5 28.5 -59.5s46.167 -29.833 81.5 -38.5z" />
    <glyph glyph-name="uni06C8" unicode="&#x6c8;" horiz-adv-x="854" arabic-form="isolated" 
d="M760 186c0 -124 -30.001 -229.331 -90.001 -315.998s-143 -152 -249 -196c-84.667 -36.667 -171.667 -62.167 -261 -76.5s-182.333 -21.5 -279 -21.5v188c88 0 170.833 5.5 248.5 16.5s145.167 27.5 202.5 49.5c77.333 29.333 139.333 69.666 186 120.999s70 119 70 203
c-9.33301 -6 -30.5 -14.333 -63.5 -25s-63.833 -16 -92.5 -16c-114.667 0 -204 30.5 -268 91.5s-96 136.167 -96 225.5c0 101.333 32.833 189.166 98.5 263.499s138.5 111.5 218.5 111.5c110.667 0 200.834 -57.667 270.501 -173s104.5 -264 104.5 -446zM574.999 340.002
c0 18.667 -3.99902 43.5 -11.999 74.5s-20.333 62.5 -37 94.5c-14.667 28 -33.334 52.833 -56.001 74.5s-47 32.5 -73 32.5c-46 0 -83.667 -18.833 -113 -56.5s-44 -78.834 -44 -123.501c0 -39.333 18.167 -71.666 54.5 -96.999s84.833 -38 145.5 -38
c28.667 0 55.667 4.5 81 13.5s43.333 17.5 54 25.5zM286 971.002h-92v616h92v-616z" />
    <glyph glyph-name="uni06C9" unicode="&#x6c9;" horiz-adv-x="854" arabic-form="isolated" 
d="M760 186c0 -124 -30.001 -229.331 -90.001 -315.998s-143 -152 -249 -196c-84.667 -36.667 -171.667 -62.167 -261 -76.5s-182.333 -21.5 -279 -21.5v188c88 0 170.833 5.5 248.5 16.5s145.167 27.5 202.5 49.5c77.333 29.333 139.333 69.666 186 120.999s70 119 70 203
c-9.33301 -6 -30.5 -14.333 -63.5 -25s-63.833 -16 -92.5 -16c-114.667 0 -204 30.5 -268 91.5s-96 136.167 -96 225.5c0 101.333 32.833 189.166 98.5 263.499s138.5 111.5 218.5 111.5c110.667 0 200.834 -57.667 270.501 -173s104.5 -264 104.5 -446zM574.999 340.002
c0 18.667 -3.99902 43.5 -11.999 74.5s-20.333 62.5 -37 94.5c-14.667 28 -33.334 52.833 -56.001 74.5s-47 32.5 -73 32.5c-46 0 -83.667 -18.833 -113 -56.5s-44 -78.834 -44 -123.501c0 -39.333 18.167 -71.666 54.5 -96.999s84.833 -38 145.5 -38
c28.667 0 55.667 4.5 81 13.5s43.333 17.5 54 25.5zM555 971.002l-149 219l-149 -219h-107l207 316h98l207 -316h-107z" />
    <glyph glyph-name="uni06CA.fina" unicode="&#x6ca;" horiz-adv-x="909" 
d="M909 0l-176.005 -0.000976562c-29.333 -91.333 -77.166 -165.666 -143.499 -222.999s-146.166 -101.666 -239.499 -132.999c-84.667 -28.667 -168.667 -47.167 -252 -55.5s-155.666 -12.5 -216.999 -12.5v188c50 0 110.667 2.66699 182 8s136.333 15.666 195 30.999
c78 21.333 140.667 48.333 188 81s83 72.667 107 120c-98 8 -178.167 27 -240.5 57s-112.166 66.667 -149.499 110c-36 41.333 -60.833 85.333 -74.5 132s-20.5 89 -20.5 127c0 100 32.5 187.5 97.5 262.5s138.167 112.5 219.5 112.5
c110.667 0 200.834 -57.667 270.501 -173s104.5 -263.333 104.5 -444h149v-188zM298.995 293.999c24 -24.667 59.165 -46.998 105.498 -66.998s107.5 -32.333 183.5 -37c-3.33301 133.333 -22.666 237.666 -57.999 312.999s-79.666 113 -132.999 113
c-46 0 -83.667 -18.833 -113 -56.5s-44 -78.834 -44 -123.501c0 -19.333 3.33301 -41.333 10 -66s23 -50 49 -76zM350.993 971.001h-148v148h148v-148zM618.993 971.001h-148v148h148v-148z" />
    <glyph glyph-name="uni06CB" unicode="&#x6cb;" horiz-adv-x="854" arabic-form="isolated" 
d="M760 186c0 -124 -30.001 -229.331 -90.001 -315.998s-143 -152 -249 -196c-84.667 -36.667 -171.667 -62.167 -261 -76.5s-182.333 -21.5 -279 -21.5v188c88 0 170.833 5.5 248.5 16.5s145.167 27.5 202.5 49.5c77.333 29.333 139.333 69.666 186 120.999s70 119 70 203
c-9.33301 -6 -30.5 -14.333 -63.5 -25s-63.833 -16 -92.5 -16c-114.667 0 -204 30.5 -268 91.5s-96 136.167 -96 225.5c0 101.333 32.833 189.166 98.5 263.499s138.5 111.5 218.5 111.5c110.667 0 200.834 -57.667 270.501 -173s104.5 -264 104.5 -446zM574.999 340.002
c0 18.667 -3.99902 43.5 -11.999 74.5s-20.333 62.5 -37 94.5c-14.667 28 -33.334 52.833 -56.001 74.5s-47 32.5 -73 32.5c-46 0 -83.667 -18.833 -113 -56.5s-44 -78.834 -44 -123.501c0 -39.333 18.167 -71.666 54.5 -96.999s84.833 -38 145.5 -38
c28.667 0 55.667 4.5 81 13.5s43.333 17.5 54 25.5zM337 971.002h-148v148h148v-148zM633 971.002h-148v148h148v-148zM485 1180h-148v148h148v-148z" />
    <glyph glyph-name="afii57555" unicode="&#x6cc;" horiz-adv-x="1786" arabic-form="isolated" 
d="M1698 846l-9.99609 -0.00292969c-46.667 28.667 -101.334 53.834 -164.001 75.501s-131.667 32.5 -207 32.5c-62.667 0 -118.667 -13.333 -168 -40s-74 -61 -74 -103c0 -35.333 35.5 -67 106.5 -95l190.5 -73c34 -12.667 70.167 -28.167 108.5 -46.5
s70.166 -37.166 95.499 -56.499c29.333 -21.333 52.166 -44.333 68.499 -69s24.5 -54.667 24.5 -90c0 -124.667 -80.667 -219.334 -242 -284.001s-401.333 -97 -720 -97c-212.667 0 -368.334 35.5 -467.001 106.5s-148 182.833 -148 335.5c0 52 3.16699 104 9.5 156
s10.166 84 11.499 96h172v-10c-2 -10 -7 -43.167 -15 -99.5s-12 -103.166 -12 -140.499c0 -93.333 34.167 -159.333 102.5 -198s184.5 -58 348.5 -58c267.333 0 466.5 16.833 597.5 50.5s196.5 80.5 196.5 140.5c0 30.667 -35.5 59.334 -106.5 86.001l-190.5 72
c-36 14 -72.167 30 -108.5 48s-68.166 37.667 -95.499 59c-28 22 -50.5 46.833 -67.5 74.5s-25.5 59.167 -25.5 94.5c0 86.667 38.667 162.667 116 228s175.333 98 294 98c81.333 0 153.5 -8 216.5 -24s117.167 -34.667 162.5 -56v-213z" />
    <glyph glyph-name="uni06CD.fina" unicode="&#x6cd;" horiz-adv-x="2148" 
d="M2148 0l-8.00098 0.000976562c-87.333 0 -164.666 28.667 -231.999 86c-48 40.667 -99 104 -153 190l-63 101c-47.333 74.667 -93.666 125.667 -138.999 153c-26 15.333 -55 23 -87 23c-35.333 0 -68 -6.66699 -98 -20c-38.667 -18 -58 -42.667 -58 -74
c0 -20 18 -45 54 -75l94 -78c98 -81.333 147 -152 147 -212c0 -136.667 -64.5 -241.167 -193.5 -313.5s-321.833 -108.5 -578.5 -108.5c-196.667 0 -344.834 35.833 -444.501 107.5s-149.5 184.834 -149.5 339.501c0 25.333 2.33301 55.666 7 90.999l-246 -71v96l432 132
v-11c-18 -96 -27 -174.333 -27 -235c0 -92.667 33.667 -159.167 101 -199.5s177 -60.5 329 -60.5c194 0 343.167 18 447.5 54s156.5 93 156.5 171c0 32.667 -49.167 86.167 -147.5 160.5s-147.5 145.833 -147.5 214.5c0 79.333 34.667 146.666 104 201.999
c64.667 52 137.334 78 218.001 78c78 0 149 -28.667 213 -86c41.333 -37.333 90.666 -101 147.999 -191c28.667 -46.667 73.667 -110 135 -190c54 -57.333 112 -86 174 -86h12v-188z" />
    <glyph glyph-name="uni06CE.init" unicode="&#x6ce;" horiz-adv-x="573" 
d="M440 453c0 -142 -33.667 -253 -101 -333s-160 -120 -278 -120h-131v188h136c68 0 119.667 24.333 155 73s53 116.667 53 204v252h166v-264zM541 1257l-137 -286h-98l-137 286h107l79 -194l79 194h107zM251 -319h-148v148h148v-148zM519 -319h-148v148h148v-148z" />
    <glyph glyph-name="uni06CE.medi" unicode="&#x6ce;" horiz-adv-x="719" 
d="M719 0l-117 -0.000976562c-41.333 0 -86.833 11 -136.5 33s-85.5 52 -107.5 90c-23.333 -39.333 -58.333 -69.666 -105 -90.999s-92 -32 -136 -32h-187v188h142c60 0 108.667 20.667 146 62s56 100 56 176v121h168v-121c0 -72 18.833 -129.667 56.5 -173
s87.167 -65 148.5 -65h72v-188zM541 1101l-137 -286h-98l-137 286h107l79 -194l79 194h107zM311 -319.001h-148v148h148v-148zM579 -319.001h-148v148h148v-148z" />
    <glyph glyph-name="uni06CE.fina" unicode="&#x6ce;" horiz-adv-x="2042" 
d="M2042 0l-7.99609 -0.00292969c-48.667 0 -91.667 7.66699 -129 23s-71.666 36.333 -102.999 63c-32 27.333 -60.333 57.666 -85 90.999s-47.334 66.333 -68.001 99l-63 100.5c-24 38.333 -45.667 68.5 -65 90.5c-22.667 26 -47.167 46.833 -73.5 62.5
s-55.5 23.5 -87.5 23.5c-51.333 0 -90.166 -10.333 -116.499 -31s-39.5 -41.667 -39.5 -63c0 -20 18.167 -45.167 54.5 -75.5l93.5 -77.5c47.333 -39.333 83.666 -76.166 108.999 -110.499s38 -68.166 38 -101.499c0 -136.667 -64.5 -241.167 -193.5 -313.5
s-328.5 -108.5 -598.5 -108.5c-210.667 0 -365.834 35.833 -465.501 107.5s-149.5 184.834 -149.5 339.501c0 52.667 3.16699 104.334 9.5 155.001s10.166 81.667 11.499 93h172v-11c-2 -10.667 -7 -43 -15 -97s-12 -100 -12 -138c0 -92.667 33.667 -159.167 101 -199.5
s184 -60.5 350 -60.5c207.333 0 363.166 18 467.499 54s156.5 93 156.5 171c0 27.333 -16.667 54.833 -50 82.5l-97 77.5c-55.333 41.333 -93.833 78.833 -115.5 112.5s-32.5 67.834 -32.5 102.501c0 68 30.667 131.667 92 191s138 89 230 89c44 0 83.5 -8 118.5 -24
s66.5 -36.667 94.5 -62c26 -23.333 52.333 -53.333 79 -90s49.667 -70.334 69 -101.001l66 -100c26 -38.667 49 -68.667 69 -90c26 -27.333 52.167 -48.5 78.5 -63.5s58.166 -22.5 95.499 -22.5h12v-188zM701.004 1003l-137 -286h-98l-137 286h107l79 -194l79 194h107z" />
    <glyph glyph-name="uni06CF.fina" unicode="&#x6cf;" horiz-adv-x="909" 
d="M909 0l-176.005 -0.000976562c-29.333 -91.333 -77.166 -165.666 -143.499 -222.999s-146.166 -101.666 -239.499 -132.999c-84.667 -28.667 -168.667 -47.167 -252 -55.5s-155.666 -12.5 -216.999 -12.5v188c50 0 110.667 2.66699 182 8s136.333 15.666 195 30.999
c78 21.333 140.667 48.333 188 81s83 72.667 107 120c-98 8 -178.167 27 -240.5 57s-112.166 66.667 -149.499 110c-36 41.333 -60.833 85.333 -74.5 132s-20.5 89 -20.5 127c0 100 32.5 187.5 97.5 262.5s138.167 112.5 219.5 112.5
c110.667 0 200.834 -57.667 270.501 -173s104.5 -263.333 104.5 -444h149v-188zM298.995 293.999c24 -24.667 59.165 -46.998 105.498 -66.998s107.5 -32.333 183.5 -37c-3.33301 133.333 -22.666 237.666 -57.999 312.999s-79.666 113 -132.999 113
c-46 0 -83.667 -18.833 -113 -56.5s-44 -78.834 -44 -123.501c0 -19.333 3.33301 -41.333 10 -66s23 -50 49 -76zM484.993 971.001h-148v148h148v-148z" />
    <glyph glyph-name="uni06D0" unicode="&#x6d0;" horiz-adv-x="1786" arabic-form="isolated" 
d="M1698 846l-9.99609 -0.00292969c-46.667 28.667 -101.334 53.834 -164.001 75.501s-131.667 32.5 -207 32.5c-62.667 0 -118.667 -13.333 -168 -40s-74 -61 -74 -103c0 -35.333 35.5 -67 106.5 -95l190.5 -73c34 -12.667 70.167 -28.167 108.5 -46.5
s70.166 -37.166 95.499 -56.499c29.333 -21.333 52.166 -44.333 68.499 -69s24.5 -54.667 24.5 -90c0 -124.667 -80.667 -219.334 -242 -284.001s-401.333 -97 -720 -97c-212.667 0 -368.334 35.5 -467.001 106.5s-148 182.833 -148 335.5c0 52 3.16699 104 9.5 156
s10.166 84 11.499 96h172v-10c-2 -10 -7 -43.167 -15 -99.5s-12 -103.166 -12 -140.499c0 -93.333 34.167 -159.333 102.5 -198s184.5 -58 348.5 -58c267.333 0 466.5 16.833 597.5 50.5s196.5 80.5 196.5 140.5c0 30.667 -35.5 59.334 -106.5 86.001l-190.5 72
c-36 14 -72.167 30 -108.5 48s-68.166 37.667 -95.499 59c-28 22 -50.5 46.833 -67.5 74.5s-25.5 59.167 -25.5 94.5c0 86.667 38.667 162.667 116 228s175.333 98 294 98c81.333 0 153.5 -8 216.5 -24s117.167 -34.667 162.5 -56v-213zM819.004 -214.003h-148v148h148v-148
zM819.004 -423.003h-148v148h148v-148z" />
    <glyph glyph-name="uni06D1.fina" unicode="&#x6d1;" horiz-adv-x="2042" 
d="M2042 0l-8 0.00195312c-88 0 -162.667 29.333 -224 88c-45.333 43.333 -88.666 109.666 -129.999 198.999l-94 210c-69.333 130.667 -144.666 196 -225.999 196c-35.333 0 -68 -6.66699 -98 -20c-38.667 -18 -58 -42.667 -58 -74c0 -20 23 -44 69 -72l79 -41
c98 -54.667 147 -115.334 147 -182.001c0 -144 -104.667 -241 -314 -291c-112.667 -27.333 -272 -41 -478 -41c-178 0 -319 31.333 -423 94c-128 77.333 -192 199 -192 365c0 10.667 4.66699 67.334 14 170.001h173v-10c-14 -78.667 -21 -131.334 -21 -158.001
c0 -182 150.333 -273 451 -273c416 0 624 45.333 624 136c0 30.667 -49.167 71.167 -147.5 121.5s-147.5 111.5 -147.5 183.5c0 80 34.333 147.667 103 203c64.667 51.333 137.667 77 219 77c135.333 0 255.666 -99 360.999 -297l107 -245
c53.333 -100.667 120.666 -151 201.999 -151h12v-188zM967 -213.998h-148v148h148v-148zM671 -213.998h-148v148h148v-148zM819 -422.998h-148v148h148v-148z" />
    <glyph glyph-name="uni06D2" unicode="&#x6d2;" horiz-adv-x="1872" arabic-form="isolated" 
d="M1872 -300h-1412c-144 0 -254.333 19 -331 57c-73.333 36.667 -110 87.334 -110 152.001c0 60.667 34.333 110.667 103 150c40.667 22.667 115 49.667 223 81c103.333 30 173 56.333 209 79c40.667 25.333 116 96.666 226 213.999c86 91.333 154.333 137 205 137
c56 0 125.667 -60.667 209 -182v-188c-26.667 44 -60.667 89.333 -102 136c-46.667 51.333 -79.667 77 -99 77c-13.333 0 -53.666 -38.333 -120.999 -115c-79.333 -90 -147 -152.667 -203 -188c-63.333 -40 -160 -77 -290 -111c-102.667 -27.333 -154 -49 -154 -65
c0 -30.667 57.667 -46 173 -46h1474v-188z" />
    <glyph glyph-name="uni06D3" unicode="&#x6d3;" horiz-adv-x="1872" arabic-form="isolated" 
d="M1872 -300h-1412c-144 0 -254.333 19 -331 57c-73.333 36.667 -110 87.334 -110 152.001c0 60.667 34.333 110.667 103 150c40.667 22.667 115 49.667 223 81c103.333 30 173 56.333 209 79c40.667 25.333 116 96.666 226 213.999c86 91.333 154.333 137 205 137
c56 0 125.667 -60.667 209 -182v-188c-26.667 44 -60.667 89.333 -102 136c-46.667 51.333 -79.667 77 -99 77c-13.333 0 -53.666 -38.333 -120.999 -115c-79.333 -90 -147 -152.667 -203 -188c-63.333 -40 -160 -77 -290 -111c-102.667 -27.333 -154 -49 -154 -65
c0 -30.667 57.667 -46 173 -46h1474v-188zM1104 817h-336v94h74c-16 8.66699 -29.167 22.667 -39.5 42s-15.5 39.333 -15.5 60c0 42.667 15.667 80 47 112s73.666 48 126.999 48c35.333 0 61.5 -2 78.5 -6s28.833 -7.33301 35.5 -10v-101h-6
c-9.33301 4 -25.166 8.83301 -47.499 14.5s-41.833 8.5 -58.5 8.5c-29.333 0 -51.333 -6 -66 -18s-22 -28 -22 -48c0 -30 15.333 -54.5 46 -73.5s67 -28.5 109 -28.5h74v-94z" />
    <glyph glyph-name="uni06FA.init" unicode="&#x6fa;" horiz-adv-x="2007" 
d="M1896 446c0 -144 -33.166 -255.333 -99.499 -334s-159.166 -118 -278.499 -118c-51.333 0 -101.833 9 -151.5 27s-86.834 42.333 -111.501 73c-37.333 -31.333 -76 -55.833 -116 -73.5s-95.333 -26.5 -166 -26.5c-80.667 0 -149.667 13.333 -207 40
s-101.666 63 -132.999 109c-38.667 -42.667 -81.334 -77.167 -128.001 -103.5s-102.334 -39.5 -167.001 -39.5h-408v188h461c44.667 0 78.667 7 102 21s39.333 32.333 48 55s13.167 47.167 13.5 73.5s0.5 59.833 0.5 100.5v107h166c0 -126.667 19.5 -218.834 58.5 -276.501
s103.5 -86.5 193.5 -86.5c73.333 0 128.5 21.5 165.5 64.5s55.5 103.5 55.5 181.5v117h166v-150c0 -67.333 14.833 -119.666 44.5 -156.999s68.167 -56 115.5 -56c72.667 0 126 21.667 160 65s51 114 51 212v258h165v-271zM1197 801h-148v148h148v-148zM1493 801h-148v148
h148v-148zM1345 1010h-148v148h148v-148zM1345 -319h-148v148h148v-148z" />
    <glyph glyph-name="uni06FA.medi" unicode="&#x6fa;" horiz-adv-x="2173" 
d="M1808 129c-34 -47.333 -75.1689 -81.665 -123.502 -102.998s-103.833 -32 -166.5 -32c-51.333 0 -101.833 9 -151.5 27s-86.834 42.333 -111.501 73c-37.333 -31.333 -76 -55.833 -116 -73.5s-95.333 -26.5 -166 -26.5c-80.667 0 -149.667 13.333 -207 40
s-101.666 63 -132.999 109c-44.667 -49.333 -90.167 -85.5 -136.5 -108.5s-99.166 -34.5 -158.499 -34.5h-408v188h400c44.667 0 81.834 7 111.501 21s52.5 32.333 68.5 55c17.333 24.667 29.166 51.5 35.499 80.5s9.5 60.167 9.5 93.5v107h166c0 -126 19.333 -218 58 -276
s103.334 -87 194.001 -87c73.333 0 128.5 21.5 165.5 64.5s55.5 103.5 55.5 181.5v117h166v-150c0 -68.667 14.833 -121.334 44.5 -158.001s68.167 -55 115.5 -55c75.333 0 129 22 161 66s48 114.333 48 211v258h167v-291c0 -72.667 18.5 -130.5 55.5 -173.5
s86.833 -64.5 149.5 -64.5h72v-188h-117c-42 0 -88 12.167 -138 36.5s-86.667 55.166 -110 92.499zM1197 801.001h-148v148h148v-148zM1493 801.001h-148v148h148v-148zM1345 1010h-148v148h148v-148zM1345 -318.999h-148v148h148v-148z" />
    <glyph glyph-name="uni06FA.fina" unicode="&#x6fa;" horiz-adv-x="2652" 
d="M2654 0l-119.004 0.000976562c-42 0 -88.167 12.167 -138.5 36.5s-87.166 55.166 -110.499 92.499c-32 -44 -71.5 -77.5 -118.5 -100.5s-104.5 -34.5 -172.5 -34.5c-51.333 0 -101.833 9 -151.5 27s-86.5 42.333 -110.5 73c-38 -31.333 -77 -55.833 -117 -73.5
s-95.333 -26.5 -166 -26.5c-50 0 -97.667 6.33301 -143 19s-80.333 28 -105 46c-10 -134.667 -70.167 -248.834 -180.5 -342.501s-246.166 -140.5 -407.499 -140.5c-77.333 0 -148.666 9.66699 -213.999 29s-120.666 49.666 -165.999 90.999s-80.333 95 -105 161
s-37 144.333 -37 235c0 66.667 4.16699 132.667 12.5 198s13.166 102.333 14.499 111h182v-16c-7.33301 -24.667 -16.333 -67.167 -27 -127.5s-16 -116.166 -16 -167.499c0 -103.333 29.5 -183.5 88.5 -240.5s148.167 -85.5 267.5 -85.5c138 0 242.833 36.333 314.5 109
s107.5 181.334 107.5 326.001c0 56 -1.66699 122.5 -5 199.5s-5.66602 125.833 -6.99902 146.5h178c0 -136.667 20.5 -231.334 61.5 -284.001s103.167 -79 186.5 -79c73.333 0 128.5 21.5 165.5 64.5s55.5 103.5 55.5 181.5v117h166v-150c0 -69.333 15 -122.166 45 -158.499
s68.333 -54.5 115 -54.5c74.667 0 128.5 21.833 161.5 65.5s49.5 114.167 49.5 211.5v258h166v-260c0 -92.667 17.5 -160.667 52.5 -204s86.167 -65 153.5 -65h74v-188zM1671 801.001h-148v148h148v-148zM1967 801.001h-148v148h148v-148zM1819 1010h-148v148h148v-148z
M1819 -318.999h-148v148h148v-148z" />
    <glyph glyph-name="uni06FB.init" unicode="&#x6fb;" horiz-adv-x="1552" 
d="M1460 408c0 -56 -12.835 -108.831 -38.502 -158.498s-64.167 -92.834 -115.5 -129.501s-115.333 -65.834 -192 -87.501s-167.334 -32.5 -272.001 -32.5h-400c-42.667 0 -81.667 6.5 -117 19.5s-66.666 33.833 -93.999 62.5c-25.333 -28 -55.333 -48.667 -90 -62
s-74 -20 -118 -20h-93v188h97c44.667 0 75.834 17 93.501 51s26.5 80.667 26.5 140v10h168v-10c0 -36.667 3.66699 -69.667 11 -99s19.333 -51.666 36 -66.999c47.333 78.667 99.833 154.167 157.5 226.5s117.5 136.5 179.5 192.5c60.667 55.333 123 99.666 187 132.999
s124.333 50 181 50c110.667 0 203.834 -37.5 279.501 -112.5s113.5 -173.167 113.5 -294.5zM1112 227.002c67.333 20.667 114.501 44.834 141.501 72.501s40.5 62.167 40.5 103.5c0 61.333 -21.833 114.333 -65.5 159s-98.167 67 -163.5 67c-40.667 0 -85 -15.5 -133 -46.5
s-97.333 -70.167 -148 -117.5c-44.667 -41.333 -88.334 -87.5 -131.001 -138.5s-77.334 -97.167 -104.001 -138.5h174c57.333 0 125.333 3.16699 204 9.5s140.334 16.166 185.001 29.499zM600.999 939.002h-148v148h148v-148zM600.999 -318.998h-148v148h148v-148z" />
    <glyph glyph-name="uni06FB.medi" unicode="&#x6fb;" horiz-adv-x="1571" 
d="M1571 0l-117.001 0.000976562c-32.667 0 -69 7.16699 -109 21.5s-73.333 33.833 -100 58.5c-34 -22 -87.167 -40.833 -159.5 -56.5s-132.5 -23.5 -180.5 -23.5h-463c-42.667 0 -81.667 6.5 -117 19.5s-66.666 33.833 -93.999 62.5c-25.333 -28 -55.333 -48.667 -90 -62
s-74 -20 -118 -20h-93v188h97c44.667 0 75.834 17 93.501 51s26.5 80.667 26.5 140v10h168v-10c0 -38.667 3.66699 -73.334 11 -104.001s19.333 -53.334 36 -68.001c48 80 100.667 156 158 228s117 136.667 179 194c59.333 54.667 121.666 99.334 186.999 134.001
s125.666 52 180.999 52c107.333 0 199.666 -36.5 276.999 -109.5s116 -172.167 116 -297.5c0 -33.333 -5.16699 -67.5 -15.5 -102.5s-25.5 -65.833 -45.5 -92.5c16.667 -8.66699 32.334 -15 47.001 -19s32.334 -6 53.001 -6h72v-188zM1098 227.001
c57.333 16 104.334 37.668 141.001 65.001s55 64.333 55 111c0 57.333 -20.667 109.333 -62 156s-97 70 -167 70c-40.667 0 -85 -15.5 -133 -46.5s-97.333 -70.167 -148 -117.5c-44.667 -41.333 -88.334 -87.5 -131.001 -138.5s-77.334 -97.167 -104.001 -138.5h174
c50 0 113.333 3.16699 190 9.5s138.334 16.166 185.001 29.499zM601 939.002h-148v148h148v-148zM601 -318.998h-148v148h148v-148z" />
    <glyph glyph-name="uni06FB.fina" unicode="&#x6fb;" horiz-adv-x="2384" 
d="M2384 0l-117.002 0.000976562c-31.333 0 -66.5 6.5 -105.5 19.5s-73.5 33.167 -103.5 60.5c-33.333 -23.333 -82.166 -42.5 -146.499 -57.5s-119.833 -22.5 -166.5 -22.5h-639c-18.667 -129.333 -74.667 -232.333 -168 -309s-214.333 -115 -363 -115
c-150.667 0 -268.834 42.833 -354.501 128.5s-128.5 203.167 -128.5 352.5c0 95.333 4 171.5 12 228.5s13 91.5 15 103.5h182v-16c-7.33301 -30 -16.333 -76.833 -27 -140.5s-16 -122.834 -16 -177.501c0 -98 28.833 -171 86.5 -219s133.834 -72 228.501 -72
c56.667 0 108 6.66699 154 20s85 37 117 71c34.667 36 60.334 82.5 77.001 139.5s25 125.167 25 204.5c0 50.667 -1.5 92 -4.5 124s-5.5 54 -7.5 66h178v-12c0 -38 6 -73.667 18 -107s27.333 -57 46 -71c102 174 218.833 320.167 350.5 438.5s249.5 177.5 353.5 177.5
c112 0 205.5 -38 280.5 -114s112.5 -173.667 112.5 -293c0 -33.333 -5.16699 -67.5 -15.5 -102.5s-25.5 -65.833 -45.5 -92.5c17.333 -8.66699 33.166 -15 47.5 -19c14.333 -4 31.833 -6 52.5 -6h72v-188zM1925 227.001c70 21.333 117.835 46.501 143.502 75.501
s38.5 62.5 38.5 100.5c0 61.333 -21.333 114.333 -64 159s-97.667 67 -165 67c-40.667 0 -85 -15.5 -133 -46.5s-97.333 -70.167 -148 -117.5c-44.667 -41.333 -88.334 -87.5 -131.001 -138.5s-77.334 -97.167 -104.001 -138.5h174c57.333 0 125.5 3.16699 204.5 9.5
s140.5 16.166 184.5 29.499zM1942 1024h-148v148h148v-148zM1942 -318.998h-148v148h148v-148z" />
    <glyph glyph-name="uni06FC.init" unicode="&#x6fc;" horiz-adv-x="1214" 
d="M1137 162c-192.667 -52 -352.5 -92.0029 -479.5 -120.003s-237.5 -42 -331.5 -42h-396v188h473c-56.667 26.667 -106.334 69.834 -149.001 129.501s-64 125.834 -64 198.501c0 125.333 42.5 227 127.5 305s191.5 117 319.5 117c80 0 155.833 -7.66699 227.5 -23
s129.5 -35 173.5 -59v-213h-10c-44 32 -99 58.833 -165 80.5s-138.667 32.5 -218 32.5c-87.333 0 -157.333 -23 -210 -69s-79 -104.333 -79 -175c0 -60 24.167 -115.667 72.5 -167s111.5 -89.333 189.5 -114c60.667 8.66699 147.334 27.334 260.001 56.001
s199 51.667 259 69v-194zM738 1112h-148v148h148v-148zM738 -319.003h-148v148h148v-148z" />
    <glyph glyph-name="uni06FC.medi" unicode="&#x6fc;" horiz-adv-x="989" 
d="M989 0l-165.999 0.00195312c-64 0 -123.5 13 -178.5 39s-105.167 56.667 -150.5 92c-46 -36 -96 -66.833 -150 -92.5s-114 -38.5 -180 -38.5h-234v188h238c42.667 0 79.167 4.33301 109.5 13s56.5 19.334 78.5 32.001c-8.66699 6 -26.5 19.5 -53.5 40.5
s-58.167 48.833 -93.5 83.5c-37.333 35.333 -71.333 74.166 -102 116.499s-46 80.5 -46 114.5c0 44 14.833 81.5 44.5 112.5s66.167 56.5 109.5 76.5c47.333 21.333 96.166 36.166 146.499 44.499s94.5 12.5 132.5 12.5c42.667 0 88.834 -4.33301 138.501 -13
s96.5 -22.334 140.5 -41.001c44.667 -19.333 81.667 -44 111 -74s44 -68 44 -114c0 -36 -16.333 -75.667 -49 -119s-66 -81 -100 -113c-40.667 -38 -73.834 -66.667 -99.501 -86l-50.5 -38c10 -6 33.333 -15.5 70 -28.5s76.667 -19.5 120 -19.5h170v-188zM628.001 408.002
c36 26.667 67.333 52.001 94 76.001s40 43.667 40 59c0 21.333 -9.16699 38.5 -27.5 51.5s-41.166 23.167 -68.499 30.5c-28 7.33301 -58.5 12.166 -91.5 14.499s-59.833 3.5 -80.5 3.5c-82.667 0 -147.834 -9 -195.501 -27s-71.5 -41.667 -71.5 -71
c0 -15.333 14.5 -36.333 43.5 -63s59.167 -51 90.5 -73c35.333 -26 64.333 -46.167 87 -60.5l46 -29.5c8.66699 4.66699 25 14.667 49 30s52.333 35 85 59zM569.001 1023h-148v148h148v-148zM569.001 -318.997h-148v148h148v-148z" />
    <glyph glyph-name="uni06FC.fina" unicode="&#x6fc;" horiz-adv-x="1200" 
d="M1118 -322c-49.333 -30 -118.502 -54.502 -207.502 -73.502s-171.833 -28.5 -248.5 -28.5c-168 0 -305 42.5 -411 127.5s-159 198.167 -159 339.5c0 43.333 7.5 85.333 22.5 126s37.833 77.667 68.5 111c26.667 30.667 58 57 94 79s72 41 108 57l-37 33
c-72 64 -121.333 118.167 -148 162.5s-40 86.833 -40 127.5c0 40 13 74.833 39 104.5s58.667 54.5 98 74.5c36 18.667 79.333 33.167 130 43.5s95.334 15.5 134.001 15.5c42 0 86.333 -4.66699 133 -14s90 -23.666 130 -42.999c40.667 -20 74 -45 100 -75
s39 -66.667 39 -110c0 -48 -10.333 -91 -31 -129s-45.667 -70.333 -75 -97s-61.666 -50 -96.999 -70s-67.333 -36 -96 -48l-33 -14l49 -43c48 -42.667 98.833 -77.667 152.5 -105s115.5 -41 185.5 -41h182v-188h-186c-42 0 -82.333 6.5 -121 19.5s-77 31.5 -115 55.5
c-34 21.333 -69.833 48 -107.5 80l-107.5 95l-67 61c-70.667 -32.667 -128 -70.5 -172 -113.5s-66 -94.5 -66 -154.5c0 -84 35.833 -151.833 107.5 -203.5s169.5 -77.5 293.5 -77.5c76 0 158.5 13.333 247.5 40s156.167 56.334 201.5 89.001h10v-213zM792.998 691.998
c0 28.667 -17.666 51.5 -52.999 68.5s-95 25.5 -179 25.5c-80 0 -138.5 -8.83301 -175.5 -26.5s-55.5 -39.5 -55.5 -65.5c0 -16 15 -41 45 -75s64.667 -68.333 104 -103l45 -39l23 8c89.333 36.667 152.666 70.5 189.999 101.5s56 66.167 56 105.5zM626.999 1196h-148v148
h148v-148zM584.999 -40.002h-148v148h148v-148z" />
    <glyph glyph-name="uniFB51" unicode="&#x671;" horiz-adv-x="606" arabic-form="final" 
d="M606 0l-63 -0.000976562c-123.333 0 -217.333 41.833 -282 125.5s-97 192.834 -97 327.501v1103h166v-1091c0 -36.667 3 -70.667 9 -102s17.333 -60.333 34 -87c16.667 -27.333 37.5 -48.833 62.5 -64.5s59.5 -23.5 103.5 -23.5h67v-188zM498 1817
c0 -105.333 -55.002 -157.999 -165.002 -157.999c-18.667 0 -50 2.66699 -94 8s-77 8 -99 8c-49.333 0 -91.666 -11.333 -126.999 -34v101c33.333 18.667 68.333 28 105 28c27.333 0 46.333 -0.333008 57 -1c0 40.667 10 80.667 30 120c30.667 60 78.334 90 143.001 90
c46 0 82.5 -14.833 109.5 -44.5s40.5 -68.834 40.5 -117.501zM407.998 1817c0 44.667 -20 67 -60 67c-30 0 -53 -15 -69 -45c-13.333 -24 -20 -52.333 -20 -85c35.333 -4.66699 57 -7 65 -7c56 0 84 23.333 84 70z" />
    <glyph glyph-name="uniFB53" unicode="&#x67b;" horiz-adv-x="1919" arabic-form="final" 
d="M1919 0l-117.002 0.00195312c-41.333 0 -86.666 11 -135.999 33s-85 52 -107 90c-28 -38.667 -68.333 -68.834 -121 -90.501s-115.667 -32.5 -189 -32.5h-424c-245.333 0 -428.833 43.333 -550.5 130s-182.5 210.667 -182.5 372c0 48.667 2.83301 90.667 8.5 126
s9.83398 59.333 12.501 72h172v-10c-2.66699 -10 -7.83398 -35.167 -15.501 -75.5s-11.5 -73.833 -11.5 -100.5c0 -46 9.83301 -89 29.5 -129s51.834 -74.333 96.501 -103c48.667 -32 110 -55.667 184 -71s160.333 -23 259 -23h241h136c93.333 0 161.833 19.667 205.5 59
s65.5 99 65.5 179c0 18 -1.83301 38 -5.5 60s-6.16699 37.333 -7.5 46v15h170c2 -12 4.16699 -33.833 6.5 -65.5s3.5 -52.834 3.5 -63.501c0 -64 17.333 -118.333 52 -163s85.667 -67 153 -67h72v-188zM971.998 -213.998h-148v148h148v-148zM971.998 -422.998h-148v148h148
v-148z" />
    <glyph glyph-name="uniFB54" unicode="&#x67b;" horiz-adv-x="573" arabic-form="initial" 
d="M440 453c0 -142 -33.667 -253 -101 -333s-160 -120 -278 -120h-131v188h136c68 0 119.667 24.333 155 73s53 116.667 53 204v252h166v-264zM302 -214h-148v148h148v-148zM302 -423h-148v148h148v-148z" />
    <glyph glyph-name="uniFB55" unicode="&#x67b;" horiz-adv-x="719" arabic-form="medial" 
d="M719 0l-117 -0.000976562c-41.333 0 -86.833 11 -136.5 33s-85.5 52 -107.5 90c-23.333 -39.333 -58.333 -69.666 -105 -90.999s-92 -32 -136 -32h-187v188h142c60 0 108.667 20.667 146 62s56 100 56 176v121h168v-121c0 -72 18.833 -129.667 56.5 -173
s87.167 -65 148.5 -65h72v-188zM425 -214.001h-148v148h148v-148zM425 -423.001h-148v148h148v-148z" />
    <glyph glyph-name="afii62958" unicode="&#x67e;" horiz-adv-x="1919" arabic-form="final" 
d="M1919 0l-117.002 0.00195312c-41.333 0 -86.666 11 -135.999 33s-85 52 -107 90c-28 -38.667 -68.333 -68.834 -121 -90.501s-115.667 -32.5 -189 -32.5h-424c-245.333 0 -428.833 43.333 -550.5 130s-182.5 210.667 -182.5 372c0 48.667 2.83301 90.667 8.5 126
s9.83398 59.333 12.501 72h172v-10c-2.66699 -10 -7.83398 -35.167 -15.501 -75.5s-11.5 -73.833 -11.5 -100.5c0 -46 9.83301 -89 29.5 -129s51.834 -74.333 96.501 -103c48.667 -32 110 -55.667 184 -71s160.333 -23 259 -23h241h136c93.333 0 161.833 19.667 205.5 59
s65.5 99 65.5 179c0 18 -1.83301 38 -5.5 60s-6.16699 37.333 -7.5 46v15h170c2 -12 4.16699 -33.833 6.5 -65.5s3.5 -52.834 3.5 -63.501c0 -64 17.333 -118.333 52 -163s85.667 -67 153 -67h72v-188zM874.998 -213.998h-148v148h148v-148zM1171 -213.998h-148v148h148
v-148zM1023 -422.998h-148v148h148v-148z" />
    <glyph glyph-name="afii62956" unicode="&#x67e;" horiz-adv-x="573" arabic-form="initial" 
d="M440 453c0 -142 -33.667 -253 -101 -333s-160 -120 -278 -120h-131v188h136c68 0 119.667 24.333 155 73s53 116.667 53 204v252h166v-264zM125 -214h-148v148h148v-148zM421 -214h-148v148h148v-148zM273 -423h-148v148h148v-148z" />
    <glyph glyph-name="afii52957" unicode="&#x67e;" horiz-adv-x="719" arabic-form="medial" 
d="M719 0l-117 -0.000976562c-41.333 0 -86.833 11 -136.5 33s-85.5 52 -107.5 90c-23.333 -39.333 -58.333 -69.666 -105 -90.999s-92 -32 -136 -32h-187v188h142c60 0 108.667 20.667 146 62s56 100 56 176v121h168v-121c0 -72 18.833 -129.667 56.5 -173
s87.167 -65 148.5 -65h72v-188zM237 -214.001h-148v148h148v-148zM533 -214.001h-148v148h148v-148zM385 -423.001h-148v148h148v-148z" />
    <glyph glyph-name="uniFB5B" unicode="&#x680;" horiz-adv-x="1919" arabic-form="final" 
d="M1919 0l-117.002 0.00195312c-41.333 0 -86.666 11 -135.999 33s-85 52 -107 90c-28 -38.667 -68.333 -68.834 -121 -90.501s-115.667 -32.5 -189 -32.5h-424c-245.333 0 -428.833 43.333 -550.5 130s-182.5 210.667 -182.5 372c0 48.667 2.83301 90.667 8.5 126
s9.83398 59.333 12.501 72h172v-10c-2.66699 -10 -7.83398 -35.167 -15.501 -75.5s-11.5 -73.833 -11.5 -100.5c0 -46 9.83301 -89 29.5 -129s51.834 -74.333 96.501 -103c48.667 -32 110 -55.667 184 -71s160.333 -23 259 -23h241h136c93.333 0 161.833 19.667 205.5 59
s65.5 99 65.5 179c0 18 -1.83301 38 -5.5 60s-6.16699 37.333 -7.5 46v15h170c2 -12 4.16699 -33.833 6.5 -65.5s3.5 -52.834 3.5 -63.501c0 -64 17.333 -118.333 52 -163s85.667 -67 153 -67h72v-188zM1106 -213.998h-148v148h148v-148zM1106 -422.998h-148v148h148v-148z
M837.998 -213.998h-148v148h148v-148zM837.998 -422.998h-148v148h148v-148z" />
    <glyph glyph-name="uniFB5C" unicode="&#x680;" horiz-adv-x="573" arabic-form="initial" 
d="M440 453c0 -142 -33.667 -253 -101 -333s-160 -120 -278 -120h-131v188h136c68 0 119.667 24.333 155 73s53 116.667 53 204v252h166v-264zM436 -214h-148v148h148v-148zM436 -423h-148v148h148v-148zM168 -214h-148v148h148v-148zM168 -423h-148v148h148v-148z" />
    <glyph glyph-name="uniFB5D" unicode="&#x680;" horiz-adv-x="719" arabic-form="medial" 
d="M719 0l-117 -0.000976562c-41.333 0 -86.833 11 -136.5 33s-85.5 52 -107.5 90c-23.333 -39.333 -58.333 -69.666 -105 -90.999s-92 -32 -136 -32h-187v188h142c60 0 108.667 20.667 146 62s56 100 56 176v121h168v-121c0 -72 18.833 -129.667 56.5 -173
s87.167 -65 148.5 -65h72v-188zM559 -214.001h-148v148h148v-148zM559 -423.001h-148v148h148v-148zM291 -214.001h-148v148h148v-148zM291 -423.001h-148v148h148v-148z" />
    </font>
</defs>
</svg>
